とまどい→レシピ
みかくにんぐッ!

BASIC

Level: 3
BPM: 170
Notes: 179

1
口口口口 |----|
口口口口 |----|
口口口口 |----|
口口口口 |----|
2
口口口口 |①---|
口口口口 |----|
口口口口 |②---|
①②口口 |----|
3
口口口口 |①---|
口口口口 |----|
口口口口 |②---|
口口①② |----|
4
口口口口 |①---|
口口口口 |----|
口口口口 |②---|
①②口口 |----|
5
口口口口 |①---|
口口口口 |----|
口口口口 |②---|
口口①② |----|
6
口口口口 |①---|
口口口口 |----|
口口口口 |②---|
①②口口 |----|
7
口口口口 |①---|
口口口口 |----|
口口口口 |②---|
口口①② |----|
8
口口口口 |①---|
口口口口 |----|
口口口口 |②---|
①②口口 |----|
9
口口口口 |①---|
③口口② |----|
口口口口 |②---|
口口①口 |③---|
10
口②①口 |①---|
口④③口 |②---|
口口口口 |③---|
口口口口 |④---|
11
口口口口 |①---|
④口口③ |②---|
口②①口 |③---|
口口口口 |④---|
12
口②①口 |①---|
口④③口 |②---|
口口口口 |③---|
口口口口 |④---|
13
口口口口 |①---|
口口口口 |----|
口口口口 |②---|
口②①口 |----|
14
口②①口 |①---|
口④③口 |②---|
口口口口 |③---|
口口口口 |④---|
15
口口口口 |①---|
④口口③ |②---|
口②①口 |③---|
口口口口 |④---|
16
口口①口 |①---|
口口口口 |----|
口口口口 |----|
口口口口 |----|
17
口口口口 |----|
口口口口 |----|
口口口口 |----|
口口口口 |----|
18
口口口口 |①---|
口①口口 |----|
口②口口 |②---|
口口口口 |----|
19
口口口口 |①---|
口口口口 |----|
口口口口 |②---|
口①②口 |----|
20
口口口口 |①---|
口口口② |----|
口口口① |②---|
口口口口 |----|
21
口口②口 |①---|
口口①口 |----|
口口口口 |②---|
口口口口 |----|
22
口口口口 |①---|
口①①口 |----|
口口口口 |----|
口口口口 |----|
23
口口口口 |----|
①口口口 |----|
口口口口 |①---|
口口口口 |----|
24
口口口口 |①---|
口口口口 |----|
口①口口 |②---|
口口②口 |----|
25
口口口口 |①---|
口口口口 |----|
口口口口 |②---|
②①口口 |----|
26
口口口口 |①---|
口口口① |----|
口口口② |②---|
口口口口 |----|
27
口口口口 |①---|
口口口口 |----|
口口口口 |②---|
口②①口 |----|
28
口口口口 |①---|
①口口口 |----|
②口口口 |②---|
口口口口 |----|
29
口口口口 |①---|
口口口口 |----|
口口口口 |②---|
口①②口 |----|
30
口口口口 |①---|
口口口口 |----|
口①①口 |----|
口口口口 |----|
31
口口口口 |①---|
口①口口 |----|
口口②口 |②---|
口口口口 |----|
32
口口口口 |①---|
口口口口 |----|
口口口口 |----|
口①口口 |----|
33
口口口口 |----|
口口口口 |----|
口口口口 |----|
口口口口 |----|
34
口口口口 |①---|
口口口口 |----|
口口口口 |②---|
①①②② |----|
35
口口口口 |①---|
口口口口 |----|
①①②② |②---|
口口口口 |----|
36
口口口口 |①---|
①①②② |----|
口口口口 |②---|
口口口口 |----|
37
①①②② |①---|
口口口口 |----|
口口口口 |②---|
口口口口 |----|
38
口口口口 |①---|
口①口口 |----|
口②口口 |②---|
口口口口 |----|
39
口口口口 |①---|
口口①口 |----|
口口②口 |②---|
口口口口 |----|
40
口口口口 |①---|
口口口口 |----|
口口口口 |②---|
口口②① |----|
41
口口口口 |①---|
口口口口 |----|
口口口口 |②---|
②①口口 |----|
42
口口口口 |①---|
口②①口 |----|
口②①口 |②---|
口口口口 |----|
43
口口口口 |①---|
②口口① |----|
②口口① |②---|
口口口口 |----|
44
口口口口 |①---|
口①①口 |----|
口口口口 |----|
口口口口 |----|
45
①②③口 |----|
口口口口 |①---|
口口口口 |②---|
口口口口 |③---|
46
口口口口 |①---|
口①②口 |②---|
口③④口 |③---|
口口口口 |④---|
47
口口口口 |①---|
口口口口 |②---|
口口口口 |③---|
①②③④ |④---|
48
口口口口 |①---|
②口口① |②---|
④口口③ |③---|
口口口口 |④---|
49
口口口口 |①---|
口口口口 |②---|
口口口口 |③---|
④③②① |④---|
50
口口口口 |①---|
②④口口 |②---|
①③口口 |③---|
口口口口 |④---|
51
口口口口 |①---|
口口②④ |②---|
口口①③ |③---|
口口口口 |④---|
52
④③②① |①---|
口口口口 |②---|
口口口口 |③---|
口口口口 |④---|
53
口口口口 |①---|
口口①口 |----|
口②口口 |②---|
口口口口 |----|
54
口口口口 |①---|
口①②口 |②---|
口③④口 |③---|
口口口口 |④---|
55
口口口口 |①---|
口口口口 |②---|
口口口口 |③---|
①②③④ |④---|
56
口口口口 |①---|
②口口① |②---|
④口口③ |③---|
口口口口 |④---|
57
口口口口 |①---|
口口口口 |②---|
口口口口 |③---|
④③②① |④---|
58
口口口口 |①---|
②④口口 |②---|
①③口口 |③---|
口口口口 |④---|
59
口口口口 |①---|
口口②④ |②---|
口口①③ |③---|
口口口口 |④---|
60
④③②① |①---|
口口口口 |②---|
口口口口 |③---|
口口口口 |④---|
61
口口口口 |①---|
口②①口 |----|
口②①口 |②---|
口口口口 |----|
62
口口①① |①---|
②②口口 |----|
口口口口 |②---|
口口口口 |----|
63
口口口口 |①---|
口口口口 |----|
口口①① |②---|
口②③口 |③---|
64
口口口口 |①---|
口①①口 |----|
口①①口 |----|
口口口口 |----|

不確定度: 0

最終更新:2014年12月12日 01:09