キラーボール
ゲスの極み乙女。

BASIC

Level: 3
BPM: 150
Notes: 226

1
口口口口 |----|
口口口口 |----|
口口口口 |----|
口口口口 |----|
2
①①口口 |①---|
口口②② |----|
口口口口 |②---|
口口口口 |----|
3
口口口口 |①---|
口口口口 |----|
①①口口
口口口口

口口口口
口口②口
口③口口 |②---|
口口口口 |③---|
4
口口口口 |①---|
口口口口 |②---|
口口口口 |③---|
③④②① |④---|
5
口口口口 |①---|
口口口口 |②---|
③④②① |③---|
口口口口 |④---|
6
口口口口 |①---|
口口口口 |②---|
口口口口 |③---|
③④②① |④---|
7
口口口口 |①---|
口口口口 |②---|
③④②① |③---|
口口口口 |④---|
8
③④②① |①---|
口口口口 |②---|
口口口口 |③---|
口口口口 |④---|
9
口口口口 |①---|
③④②① |②---|
口口口口 |③---|
口口口口 |④---|
10
③④②① |①---|
口口口口 |②---|
口口口口 |③---|
口口口口 |④---|
11
口口口口 |①---|
③④②① |②---|
口口口口 |③---|
口口口口 |④---|
12
口口口口 |①---|
口口口口 |②---|
口口口① |③---|
口③②口 |----|
13
口口口口 |①---|
③口口③ |②---|
口②①口 |③---|
口口口口 |----|
14
口①口口 |①---|
口口②口 |②---|
口③口口 |③---|
口口口口 |----|
15
口口口口 |①---|
口口①口 |②---|
口②口口 |③---|
口口③口 |----|
16
口口口口 |①---|
③口口口 |②---|
②口口口 |③---|
①口口口 |----|
17
口口口① |①---|
口口口② |②---|
口口口③ |③---|
口口口口 |----|
18
口口口口 |①---|
口③口口 |②---|
口②口口 |③---|
口①口口 |----|
19
口口①口 |①---|
口口②口 |②---|
口口③口 |③---|
口口口口 |----|
20
①①口口 |①---|
口口③② |----|
口口口口 |②---|
口口口口 |③---|
21
①①口口 |①---|
口口口口 |----|
口口③② |②---|
口口口口 |③---|
22
①①口口 |①---|
口口口口 |----|
口口口口 |②---|
口口③② |③---|
23
①①口口 |①---|
②②口口 |②---|
③③口口 |③---|
④④口口 |④---|
24
口口①① |①---|
②③口口 |----|
口口口口 |②---|
口口口口 |③---|
25
口口①① |①---|
口口口口 |----|
②③口口 |②---|
口口口口 |③---|
26
口口①① |①---|
口口口口 |----|
口口口口 |②---|
②③口口 |③---|
27
口口①① |①---|
口口②② |②---|
口口③③ |③---|
口口④④ |④---|
28
口口口口 |①---|
口①口口 |----|
口口②口 |②---|
口口口口 |----|
29
①①口口 |①---|
口口②② |②---|
③③口口 |③---|
口口口口 |----|
30
口口口口 |①---|
口口口口 |----|
口口②口 |②---|
口①口口 |----|
31
口口①① |①---|
②②口口 |②---|
口口③③ |③---|
口口口口 |----|
32
口口口口 |①---|
口①口口 |----|
口口②口 |②---|
口口口口 |----|
33
①①口口 |①---|
口口②② |②---|
③③口口 |③---|
口口口口 |----|
34
口口口口 |①---|
口②口口 |----|
口口①口 |②---|
口口口口 |----|
35
口口①① |①---|
②②口口 |②---|
口口③③ |③---|
口口口口 |----|
36
①口口口 |①---|
口②口口 |②---|
口口③口 |③---|
口口口④ |④---|
37
口口口③ |①---|
口口口② |②---|
口口口① |③---|
口口口口 |----|
38
口①口口 |①---|
口口②口 |②---|
口③口口 |③---|
口口④口 |④---|
39
口口口口 |①---|
①①口口 |②---|
口口②② |③---|
③③口口 |----|
40
口口口① |①---|
口口②口 |②---|
口③口口 |③---|
④口口口 |④---|
41
③口口口 |①---|
②口口口 |②---|
①口口口 |③---|
口口口口 |----|
42
口口①口 |①---|
口②①口 |----|
口口③口 |②---|
口口口口 |③---|
43
口口口③ |①---|
口口口② |②---|
口口口① |③---|
口口口口 |----|
44
①口口口 |①---|
口②口口 |②---|
口口③口 |③---|
口口口④ |④---|
45
口口口③ |①---|
口口口② |②---|
口口口① |③---|
口口口口 |----|
46
口①口口 |①---|
口口②口 |②---|
口③口口 |③---|
口口④口 |④---|
47
口口口口 |①---|
①①口口 |②---|
口口②② |③---|
③③口口 |----|
48
口口口① |①---|
口口②口 |②---|
口③口口 |③---|
④口口口 |④---|
49
③口口口 |①---|
②口口口 |②---|
①口口口 |③---|
口口口口 |----|
50
口口①口 |①---|
口②①口 |----|
口口③口 |②---|
口口口口 |③---|
51
口口口③ |①---|
口口口② |②---|
口口口① |③---|
口口口口 |----|
52
口口口口 |----|
口口口口 |----|
口口口口 |----|
口口口口 |----|
53
口口口口 |----|
口口口口 |----|
②口口口 |①---|
①口口口 |②---|
54
口口口口 |①---|
①口口口 |----|
口口口口 |----|
口口口口 |----|
55
口口口① |----|
口口口② |----|
口口口口 |①---|
口口口口 |②---|
56
口口口口 |①---|
口口口口 |----|
口口口① |----|
口口口口 |----|
57
口口口口 |----|
口口口口 |----|
口②口口 |①---|
口①口口 |②---|
58
口口口口 |①---|
口①口口 |----|
口口口口 |----|
口口口口 |----|
59
口口口口 |----|
口口口口 |----|
口口口口 |----|
口口口口 |----|
60
口口口口 |①---|
口口口口 |----|
口①①口 |----|
口口口口 |----|
61
口口口口 |①---|
口①①口 |----|
口口口口 |----|
口口口口 |----|
62
口①①口 |①---|
口口口口 |----|
口口口口 |----|
口口口口 |----|
63
口口口口 |①---|
口①①口 |----|
口口口口 |----|
口口口口 |----|
64
口口口口 |①---|
口口口口 |----|
口①①口 |----|
口口口口 |----|
65
口口口口 |①---|
口①①口 |----|
口口口口 |----|
口口口口 |----|
66
口①①口 |①---|
口口口口 |----|
口口口口 |----|
口口口口 |----|
67
口口口口 |①---|
口①①口 |----|
口口口口 |----|
口口口口 |----|
68
口口口口 |①---|
口口口口 |----|
口①①口 |----|
口口口口 |----|

不確定度: 0

最終更新:2014年12月12日 01:08