キラーボール
ゲスの極み乙女。

ADVANCED

Level: 6
BPM: 150
Notes: 467

1
口口口口 |----|
口口口口 |----|
口口口口 |----|
口口口口 |----|
2
②②①① |①--②|
④④③③ |----|
口口口口 |③--④|
口口口口 |----|
3
口口口口 |①--②|
口口口口 |----|
②②①① |③-④-|
③④⑤⑥ |⑤-⑥-|
4
①④口口 |①-②-|
口②⑤口 |③---|
③⑥口口 |④-⑤-|
口口口口 |⑥---|
5
口④①口 |①-②-|
口口⑤② |③---|
口⑥③口 |④-⑤-|
口口口口 |⑥---|
6
口口口口 |①-②-|
口口④① |③---|
口⑤②口 |④-⑤-|
口口⑥③ |⑥---|
7
口口口口 |①-②-|
口①④口 |③---|
②⑤口口 |④-⑤-|
口③⑥口 |⑥---|
8
①④口口 |①-②-|
口②⑤口 |③---|
③⑥口口 |④-⑤-|
口口口口 |⑥---|
9
口④①口 |①-②-|
口口⑤② |③---|
口⑥③口 |④-⑤-|
口口口口 |⑥---|
10
口口口口 |①-②-|
口口④① |③---|
口⑤②口 |④-⑤-|
口口⑥③ |⑥---|
11
口口口口 |①-②-|
口①④口 |③---|
②⑤口口 |④-⑤-|
⑦③⑥口 |⑥-⑦-|
12
口②①⑦ |①-②-|
④口口③ |③-④-|
⑥口口⑤ |⑤-⑥-|
口口口口 |--⑦-|
13
③⑦口口 |①-②-|
口⑤口④ |③-④-|
口口⑥口 |⑤-⑥-|
②口口① |--⑦-|
14
口口口⑦ |①-②-|
⑥口口⑤ |③-④-|
④口口③ |⑤-⑥-|
②口口① |--⑦-|
15
口口口口 |①-②-|
口⑤⑥口 |③-④-|
口③④口 |⑤-⑥-|
⑦①②口 |--⑦-|
16
②口口① |①-②-|
④口口③ |③-④-|
⑥口口⑤ |⑤-⑥-|
口口⑦口 |--⑦-|
17
⑦①②口 |①-②-|
口③④口 |③-④-|
口⑤⑥口 |⑤-⑥-|
口口口口 |--⑦-|
18
口口口⑦ |①-②-|
⑥口口⑤ |③-④-|
④口口③ |⑤-⑥-|
②口口① |--⑦-|
19
口③③口 |①---|
③①①③ |②---|
②①①② |③---|
口②②口 |----|
20
①口口② |①-②-|
口③④口 |③④--|
口口口口 |⑤-⑥-|
⑤⑥⑦⑧ |⑦-⑧-|
21
①口口② |①-②-|
口③④口 |③④--|
⑤口⑦口 |⑤-⑥-|
口⑥口⑧ |⑦-⑧-|
22
①口口② |①-②-|
口③④口 |③④--|
口⑥口⑧ |⑤-⑥-|
⑤口⑦口 |⑦-⑧-|
23
①③③① |①---|
口口口口 |②---|
口口口口 |③---|
②④④② |④---|
24
①口口② |①-②-|
口③④口 |③④--|
口口口口 |⑤-⑥-|
⑤⑥⑦⑧ |⑦-⑧-|
25
①口口② |①-②-|
口③④口 |③④--|
⑤口⑦口 |⑤-⑥-|
口⑥口⑧ |⑦-⑧-|
26
①口口② |①-②-|
口③④口 |③④--|
口⑥口⑧ |⑤-⑥-|
⑤口⑦口 |⑦-⑧-|
27
①③③① |①---|
口口口口 |②---|
口口口口 |③---|
②④④② |④---|
28
①口⑤② |①---|
口①口⑤ |--②-|
口④口口 |--③-|
口口③口 |④-⑤-|
29
口①口口 |--①-|
①口②口 |--②-|
③口口口 |③-④-|
口口④口 |----|
30
②②①① |①-②-|
口口口④ |--③-|
⑤③③口 |--④-|
口口口⑥ |⑤-⑥-|
31
口口口口 |--①-|
口②②口 |--②-|
口口口口 |----|
口①①口 |----|
32
④口口口 |①-②-|
①口⑤② |--③-|
⑥①②口 |--④-|
口③③口 |⑤-⑥-|
33
口口①① |--①-|
口②口口 |--②-|
口口③口 |③-④-|
口④口口 |----|
34
⑥口口⑥ |①-②-|
口④①① |--③-|
②②⑤口 |--④-|
口③③口 |⑤-⑥-|
35
口④①口 |--①-|
④⑤⑤① |②-③-|
②⑤⑤③ |④---|
口②③口 |⑤---|
36
①口口① |①---|
口口口口 |②-③-|
③口口口
②口口②

⑥口④⑥
口口口口
口口⑤口 |④---|
口口口口 |⑤-⑥-|
37
④④口口 |--①-|
①口口① |--②-|
②口口② |--③-|
口口③③ |④---|
38
⑦⑦⑥② |①---|
⑤①①口 |②-③-|
口①①口 |④-⑤-|
③口口④ |⑥-⑦-|
39
口口口口 |--①-|
②②口口 |--②-|
①①口口
口口口口

口口口口
口口口口
⑤口④口 |--③-|
口③口口 |④-⑤-|
40
⑦②①口 |①---|
②⑦⑥① |②-③-|
口⑤口口 |④-⑤-|
③口口④ |⑥-⑦-|
41
口口口③ |--①-|
④口口① |--②-|
②口①⑤ |--③-|
口②口口 |④-⑤-|
42
口⑤口口 |----|
⑤①口口 |--①-|
口口②口 |②-③-|
口③④口 |④-⑤-|
43
口口①口 |--①-|
口②②① |--②-|
口②②口 |----|
口口口口 |----|
44
①口口① |①---|
口口口口 |②-③-|
③口口口
②口口②

⑦⑤口⑦
口口④口
口口⑥口 |④-⑤-|
口口口口 |⑥-⑦-|
45
④④口口 |--①-|
①口口① |--②-|
②口口② |--③-|
口口③③ |④---|
46
⑦⑦⑥② |①---|
⑤①①口 |②-③-|
口①①口 |④-⑤-|
③口口④ |⑥-⑦-|
47
口口口口 |--①-|
②②口口 |--②-|
①①口口
口口口口

口口口口
口口口口
⑤口④口 |--③-|
口③口口 |④-⑤-|
48
⑦②①口 |①---|
②⑦⑥① |②-③-|
口⑤口口 |④-⑤-|
③口口④ |⑥-⑦-|
49
口口③口 |--①-|
口④口① |--②-|
②口①⑤ |③-④-|
⑥②口口 |⑤-⑥-|
50
①①⑥⑥ |--①-|
口口②口 |--②-|
口③口口 |③-④-|
口⑤④口 |⑤-⑥-|
51
口口口口 |--①-|
口口口口 |--②-|
口口①① |----|
口口②② |----|
52
口口口口 |----|
口口口口 |----|
口口口口 |----|
口口口口 |----|
53
口口①① |----|
口口口口 |--①-|
口口②② |--②-|
口口③③ |--③-|
54
口口口口 |----|
口口口口 |----|
口口口口 |----|
口口口口 |----|
55
①①口口 |----|
口口口口 |--①-|
②②口口 |--②-|
③③口口 |--③-|
56
口口口口 |----|
口口口口 |----|
口口口口 |----|
口口口口 |----|
57
口①①口 |----|
口口口口 |--①-|
口②②口 |--②-|
口③③口 |--③-|
58
口口口口 |----|
口口口口 |----|
口口口口 |----|
口口口口 |----|
59
口口口口 |----|
口口口口 |----|
口口口口 |----|
口口口口 |----|
60
口口口口 |①---|
①③③① |----|
①口口① |--②-|
口②②口 |-③--|
61
口②②口 |①---|
①口口① |----|
①③③① |--②-|
口口口口 |-③--|
62
口③③口 |①---|
①口口① |----|
①口口① |--②-|
口②②口 |-③--|
63
口口口口 |①---|
①③③① |----|
①口口① |--②-|
口②②口 |-③--|
64
口②②口 |①---|
①口口① |----|
①③③① |--②-|
口口口口 |-③--|
65
口③③口 |①---|
①口口① |----|
①口口① |--②-|
口②②口 |-③--|
66
口③③口 |①---|
①口口① |----|
①②②① |--②-|
口口口口 |-③--|
67
口口口口 |①---|
①③③① |----|
①口口① |--②-|
口②②口 |-③--|
68
①口口① |①---|
口口口口 |----|
口①①口 |----|
口口口口 |----|

不確定度: 0

最終更新:2014年12月12日 01:08