Daydream cafe
Petit Rabbit's

BASIC

Level: 3
BPM: 150
Notes: 184

1
口口口口 |----|
口口口口 |----|
口口口口 |----|
口口口口 |----|
2
口①②口 |①---|
口①②口 |②---|
③口口口 |③---|
口口口口 |----|
3
口口①口 |①---|
口②口口 |②---|
口口③口 |③---|
口④口口 |④---|
4
口口口口 |①---|
口口口② |----|
口口口口 |②---|
口口口① |----|
5
口口口口 |①---|
口①口口 |②---|
口口②口 |③---|
口③口口 |----|
6
①口口② |①---|
①口口② |----|
口口口口 |②---|
口口口口 |----|
7
口③口口 |①---|
口口②口 |②---|
口①口口 |③---|
口口口口 |----|
8
口口口① |①---|
②口口口 |②---|
口口口③ |③---|
④口口口 |④---|
9
口口口口 |①---|
口口口口 |②---|
口②①口 |----|
口口口口 |----|
10
口口口① |①---|
口口口② |②---|
口口③口 |③---|
口口④口 |④---|
11
①口口口 |①---|
②口口口 |②---|
口③口口 |③---|
口④口口 |④---|
12
口口①口 |①---|
口口②口 |②---|
口口口③ |③---|
口口口④ |④---|
13
口①口口 |①---|
口②口口 |②---|
③口口口 |③---|
④口口口 |④---|
14
口口口① |①---|
口口口② |②---|
口口③口 |③---|
口口④口 |④---|
15
①口口口 |①---|
②口口口 |②---|
口③口口 |③---|
口④口口 |④---|
16
口口①口 |①---|
口口②口 |②---|
口口口③ |③---|
口口口④ |④---|
17
口口口口 |①---|
口①②口 |--②-|
口①②口 |----|
口口口口 |----|
18
口口口口 |①---|
口口口口 |----|
口口②口 |②---|
口①口口 |----|
19
口口口② |①---|
口口口① |----|
口口口口 |②---|
口口口口 |----|
20
口①口口 |①---|
口②口口 |----|
口口口口 |②---|
口口口口 |----|
21
口口①① |①---|
口口②② |----|
口口口口 |②---|
口口口口 |----|
22
口口口口 |①---|
口口口口 |----|
口②口口 |②---|
口口①口 |----|
23
②口口口 |①---|
①口口口 |----|
口口口口 |②---|
口口口口 |----|
24
口口①口 |①---|
口口②口 |----|
口口口口 |②---|
口口口口 |----|
25
口口口口 |①---|
口口口口 |----|
口①①口 |②---|
口②②口 |----|
26
口口口口 |①---|
口口口口 |----|
②口口① |②---|
口口口口 |----|
27
口口口口 |①---|
口①①口 |----|
口②②口 |②---|
口口口口 |----|
28
②口口① |①---|
口口口口 |----|
口口口口 |②---|
口口口口 |----|
29
口口口口 |①---|
口口①口 |②---|
口②口口 |③---|
口口③口 |----|
30
口口口① |①---|
口口口② |②---|
口口口③ |③---|
口口口口 |----|
31
①口口口 |①---|
②口口口 |②---|
③口口口 |③---|
口口口口 |----|
32
口②①口 |①---|
口②①口 |----|
口口口口 |②---|
口口口口 |----|
33
口口口口 |①---|
②口口② |----|
口①①口 |②---|
口口口口 |----|
34
①口口① |①---|
口口口口 |----|
口口口口 |----|
口口口口 |----|
35
口口口口 |①---|
口①口口 |----|
口①口口 |----|
口口口口 |----|
36
口口口口 |①---|
口口①口 |----|
口口①口 |----|
口口口口 |----|
37
口口口口 |①---|
②口口② |②---|
①口口① |----|
口口口口 |----|
38
口①②口 |①---|
口①②口 |②---|
口③③口 |③---|
口口口口 |----|
39
口口口① |①---|
口口口② |②---|
口口口③ |③---|
口口口④ |④---|
40
口②②口 |①---|
口口口口 |----|
口①①口 |②---|
口口口口 |----|
41
口口口口 |①---|
①②③口 |②---|
口口口口 |③---|
口口口口 |----|
42
口口口口 |①---|
口③口口 |②---|
口口②口 |③---|
口①口口 |----|
43
口③③口 |①---|
②口口① |②---|
口口口口 |③---|
口口口口 |----|
44
①口口口 |①---|
口②口口 |----|
口口口口 |②---|
口口口口 |----|
45
口口口口 |①---|
口口口口 |----|
口口①口 |②---|
口口口② |----|
46
口①②口 |①---|
口①②口 |②---|
口③③口 |③---|
口口口口 |----|
47
口口口① |①---|
口口口② |②---|
口口口③ |③---|
口口口④ |④---|
48
口②②口 |①---|
口口口口 |----|
口①①口 |②---|
口口口口 |----|
49
口口口口 |①---|
①②③口 |②---|
口口口口 |③---|
口口口口 |----|
50
口口口口 |①---|
口③口口 |②---|
口口②口 |③---|
口①口口 |----|
51
口③③口 |①---|
②口口① |②---|
口口口口 |③---|
口口口口 |----|
52
①口口口 |①---|
口②口口 |----|
口口口口 |②---|
口口口口 |----|
53
口口口口 |①---|
口口口口 |----|
口口①口 |②---|
口口口② |----|
54
口口口口 |①---|
①口口② |②---|
①口口② |----|
口口口口 |----|
55
口①①口 |①---|
口②②口 |--②-|
口③③口 |----|
口口口口 |③---|
56
口口口口 |----|
①口口① |--①-|
①口口① |----|
口口口口 |----|

不確定度: 0

最終更新:2014年12月12日 01:06