Daydream cafe
Petit Rabbit's

ADVANCED

Level: 6
BPM: 150
Notes: 437

1
口①口口 |----|
口口②口 |----|
口③口口 |--①-|
口口口口 |②-③-|
2
⑤口③⑤ |①---|
②口口① |②---|
②口口① |③-④-|
口④口口 |--⑤-|
3
口⑦口口 |--①-|
口①⑥口 |②-③-|
口⑤②口 |④-⑤-|
③口④口 |⑥-⑦-|
4
口口①① |①---|
②②口口 |②---|
口口口口
口口口口

④口口④
口口口口
口口口口 |③---|
口③③口 |--④-|
5
口①口口 |--①-|
口口②口 |②-③-|
口③口口 |④-⑤-|
口⑤④口 |----|
6
⑤口口⑤ |①---|
②④③① |②---|
②口口① |③-④-|
口口口口 |--⑤-|
7
口口③口 |--①-|
口口口口 |②-③-|
口②口口 |----|
④口①⑤ |④-⑤-|
8
⑦口口⑧ |①-②-|
①⑤⑥② |③-④-|
口③④口 |⑤-⑥-|
口口口口 |⑦-⑧-|
9
⑤⑤④④ |----|
口①口口 |--①-|
口口②口 |②-③-|
口③口口 |④-⑤-|
10
口口口口 |①-②-|
口口口口 |③-④-|
⑦⑧④③ |⑤-⑥-|
⑤⑥②① |⑦-⑧-|
11
④②①⑤ |①-②-|
④口③⑤ |③-④-|
口⑥⑥口 |--⑤-|
口口口口 |--⑥-|
12
口①口④ |--①-|
⑤口②口 |②-③-|
口口口⑥ |④-⑤-|
⑦③口口 |⑥-⑦-|
13
口口口口 |①---|
③③①① |②-③-|
口⑤⑤口 |--④-|
口④②口 |--⑤-|
14
口④口口 |--①-|
口口⑤③ |②-③-|
②⑥口口 |④-⑤-|
口口⑦① |⑥-⑦-|
15
口口④④ |①-②-|
①⑥⑥口 |③-④-|
⑤⑤口② |--⑤-|
③口口口 |--⑥-|
16
口④口口 |--①-|
①口⑤口 |②-③-|
③⑥口② |④-⑤-|
口口⑦口 |⑥-⑦-|
17
①口口② |①---|
①口口② |--②-|
口口口口 |--③-|
③④⑤口 |④-⑤-|
18
口口⑦⑦ |①-②-|
口⑥⑤口 |③-④-|
④③②① |⑤-⑥-|
口口口口 |--⑦-|
19
口口口口 |--①-|
⑦⑥⑤④ |②-③-|
口口口口 |④-⑤-|
①②③口 |⑥-⑦-|
20
②口口② |①---|
口口口口 |----|
口①①口 |----|
口口口口 |--②-|
21
口④⑤口 |--①-|
⑥③②口 |--②-|
口②③口 |③-④-|
①口口① |⑤-⑥-|
22
口口口口 |①-②-|
⑦口口⑦ |③-④-|
口⑥⑤口 |⑤-⑥-|
④③②① |--⑦-|
23
口①⑤④ |--①-|
⑥⑦②口 |②-③-|
口③口口 |④-⑤-|
口口口口 |⑥-⑦-|
24
②⑤⑤② |①---|
④口口④ |②---|
③口口③ |③---|
口①①口 |④-⑤-|
25
口口口口 |--①-|
口①①口 |--②-|
口②③口 |③---|
口②③口 |----|
26
①②③④ |①-②-|
口口口口 |③-④-|
口口口口 |⑤-⑥-|
⑤⑥⑦⑧ |⑦-⑧-|
27
口口口口 |①-②-|
①⑥③口 |③-④-|
⑤②⑦④ |⑤-⑥-|
口口口口 |⑦---|
28
③口口① |--①-|
口⑤⑤口 |②---|
口口口口 |③-④-|
④口口② |--⑤-|
29
⑥口⑦⑤ |--①-|
②口口① |②-③-|
④口口③ |④-⑤-|
口口口口 |⑥-⑦-|
30
⑦口口口 |①-②-|
口①⑥⑥ |③-④-|
⑤⑤②口 |⑤---|
口③④口 |⑥-⑦-|
31
口⑦⑥⑤ |①-②-|
口②口口 |③-④-|
口口⑧① |⑤-⑥-|
④口口③ |⑦-⑧-|
32
⑤⑥⑦口 |①-②-|
⑧口②口 |③-④-|
⑧③口口 |⑤-⑥-|
口①④口 |⑦-⑧-|
33
口口⑦⑦ |--①-|
口④口① |②-③-|
口②⑤口 |④-⑤-|
口⑥③口 |⑥-⑦-|
34
④口口④ |----|
口①②口 |①-②-|
③口口③ |--③-|
口口口口 |--④-|
35
⑤口口⑤ |--①-|
④口口④ |②-③-|
口②①口 |--④-|
口口③口 |--⑤-|
36
④口口④ |--①-|
口①口口 |②-③-|
⑤③口⑤ |--④-|
口口②口 |--⑤-|
37
口口口口 |--①-|
口②①③ |②-③-|
口口口口
③①②口

口口口口
口口⑥口
口⑤④口 |--④-|
口口口口 |⑤-⑥-|
38
①①②② |①---|
③口口④ |②---|
③⑤⑤④ |③-④-|
②②①① |--⑤-|
39
口①口④ |--①-|
⑤③②口 |②-③-|
口口口⑥ |④-⑤-|
⑦口口口 |⑥-⑦-|
40
④②①④ |①---|
口③③口 |②---|
口②①口 |③---|
口口口口 |--④-|
41
口口口口 |--①-|
①⑦⑥⑤ |②-③-|
口口④② |④-⑤-|
③口口口 |⑥-⑦-|
42
口口①① |①---|
④口口③ |②---|
④⑤⑤③ |③-④-|
②②口口 |--⑤-|
43
③④⑤② |--①-|
口③②口 |②-③-|
口口口口 |----|
①①口口 |④-⑤-|
44
口口口口 |①-②-|
口口口① |③-④-|
口③②口
④口口口

口口口口
⑧口口⑦
⑧口口⑦ |⑤-⑥-|
口⑤⑥口 |⑦-⑧-|
45
①①②② |--①-|
口口⑥口 |②-③-|
口⑤④口 |--④-|
③③口口 |⑤-⑥-|
46
①①②② |①---|
③口口④ |②---|
③⑤⑤④ |③-④-|
②②①① |--⑤-|
47
口①口④ |--①-|
⑤③②口 |②-③-|
口口口⑥ |④-⑤-|
⑦口口口 |⑥-⑦-|
48
④②①④ |①---|
口③③口 |②---|
口②①口 |③---|
口口口口 |--④-|
49
口口口口 |--①-|
①⑦⑥⑤ |②-③-|
口口④② |④-⑤-|
③口口口 |⑥-⑦-|
50
口口①① |①---|
④口口③ |②---|
④⑤⑤③ |③-④-|
②②口口 |--⑤-|
51
③④⑤② |--①-|
口③②口 |②-③-|
口口口口 |----|
①①口口 |④-⑤-|
52
口口口口 |①-②-|
口口口① |③-④-|
口③②口
④口口口

口口口口
⑧口口⑦
⑧口口⑦ |⑤-⑥-|
口⑤⑥口 |⑦-⑧-|
53
⑦口口⑦ |--①-|
口①②口 |②-③-|
口③④口 |④-⑤-|
⑤口口⑥ |⑥-⑦-|
54
⑦口⑥口 |--①-|
①⑤口② |②-③-|
①口④② |④-⑤-|
口③口口 |⑥-⑦-|
55
口口口口 |①---|
②口口① |--②-|
②口口① |----|
③口口③ |③---|
56
③口口③ |--①-|
口②②口 |②-③-|
口①①口 |----|
口口口口 |----|

不確定度: 0

最終更新:2014年12月12日 01:05