ラブラブキュートなハピハピサンデー
Lisapyon♡

BASIC

Level: 2
BPM: 165
Notes: 138

1
口口口口 |----|
口口口口 |----|
口口口口 |----|
口口口口 |----|
2
口口口口 |----|
口口口口 |----|
口口口口 |----|
口口口口 |----|
3
口口口口 |----|
口口口口 |----|
口口口口 |----|
口口口口 |----|
4
口口口口 |①---|
口①口口 |----|
口口②口 |②---|
口口口口 |----|
5
口③口口 |①---|
口口②口 |②---|
口①口口 |③---|
口口口口 |----|
6
口口口口 |①---|
口口②口 |----|
口①口口 |----|
口口口口 |②---|
7
口口②口 |①---|
口口口① |----|
口口口口 |②---|
口口口口 |----|
8
口口口口 |①---|
口②口口 |----|
口口①口 |----|
口口口口 |②---|
9
口②口口 |①---|
①口口口 |----|
口口口口 |②---|
口口口口 |----|
10
口口口口 |①---|
口口②口 |----|
口①口口 |----|
口口口口 |②---|
11
口口②口 |①---|
口口口① |----|
口口口口 |②---|
口口口口 |----|
12
口口口口 |①---|
口②口口 |----|
口口①口 |----|
口口口口 |②---|
13
口②口口 |①---|
①口口口 |----|
口口口口 |②---|
口口口口 |----|
14
口口口① |①---|
口②口口 |----|
口口口口 |②---|
口口口口 |----|
15
口口口口 |①---|
口口口① |----|
口②口口 |②---|
口口口口 |----|
16
口口①口 |①---|
口口②口 |②---|
口口③口 |③---|
口口④口 |④---|
17
口口口口 |①---|
口口口口 |----|
口口口① |②---|
口②口口 |----|
18
①口口口 |①---|
口口②口 |----|
口口口口 |②---|
口口口口 |----|
19
口口口口 |①---|
①口口口 |----|
口口②口 |②---|
口口口口 |----|
20
口①口口 |①---|
口②口口 |②---|
口③口口 |③---|
口④口口 |④---|
21
口口口口 |①---|
口口口口 |----|
①口口口 |②---|
口口②口 |----|
22
口①口口 |①---|
口口②③ |②---|
口口口口 |③---|
口口口口 |----|
23
口口口口 |①---|
口①口口 |----|
口口口② |②---|
口口口口 |----|
24
口口口口 |①---|
口口口口 |----|
口口②口 |②---|
口口①口 |----|
25
口口口口 |①---|
口口①口 |----|
口口口口 |----|
口口口口 |----|
26
口口①口 |①---|
③②口口 |②---|
口口口口 |③---|
口口口口 |----|
27
口口口口 |①---|
口口①口 |----|
②口口口 |②---|
口口口口 |----|
28
口口口口 |①---|
口口口口 |----|
口口口口 |----|
口口①口 |----|
29
口口口口 |----|
口口口口 |----|
口口口口 |----|
口口口口 |----|
30
口①口口 |①---|
口口②③ |②---|
口口口口 |③---|
口口口口 |----|
31
口口口口 |①---|
口①口口 |----|
口口口② |②---|
口口口口 |----|
32
口口口口 |①---|
口口口口 |----|
口口②口 |②---|
口口①口 |----|
33
口口口口 |①---|
口口①口 |----|
口口口口 |----|
口口口口 |----|
34
口口口口 |①---|
①②口口 |②---|
口口③④ |③---|
口口口口 |④---|
35
口口口口 |①---|
口口①口 |----|
口②口口 |②---|
口口口口 |----|
36
口口口口 |①---|
①②口口 |②---|
口口③④ |③---|
口口口口 |④---|
37
口口口口 |①---|
口②①口 |----|
口①②口 |②---|
口口口口 |----|
38
口口口① |①---|
口②口③ |②---|
口④口口 |③---|
口口口口 |④---|
39
口口口口 |①---|
口口口口 |----|
口口口① |②---|
②口口口 |----|
40
口口口口 |①---|
口口口口 |----|
②口口口 |②---|
口口①口 |----|
41
口口口口 |①---|
②口口口 |----|
口口①口 |②---|
口口口口 |----|
42
口口口① |①---|
口②口③ |②---|
口④口口 |③---|
口口口口 |④---|
43
口口口口 |①---|
口口口口 |----|
口口口① |②---|
②③口口 |③---|
44
口口口口 |①---|
口口口口 |----|
②口口口 |②---|
口口①口 |----|
45
口口口口 |①---|
②口口口 |----|
口口①口 |②---|
口口口口 |----|
46
口口口① |①---|
口②口③ |②---|
口④口口 |③---|
口口口口 |④---|
47
口口口口 |①---|
口口口口 |----|
口口口① |②---|
②口口口 |----|
48
口口口口 |①---|
口口口口 |----|
②口口口 |②---|
口口①口 |----|
49
口口口口 |①---|
②口口口 |----|
口口①口 |②---|
口口口口 |----|
50
口②①口 |①---|
口③④口 |②---|
口口口口 |③---|
口口口口 |④---|
51
口口口口 |①---|
口口口口 |②---|
口②①口 |③---|
口③口口 |----|
52
口口口口 |①---|
口口口口 |②---|
口③④口 |③---|
口②①口 |④---|
53
口③口口 |①---|
口②①口 |②---|
口口口口 |③---|
口口口口 |----|
54
口口口① |①---|
口②口口 |----|
口口口口 |②---|
口口口口 |----|
55
①口口口 |①---|
口口②口 |----|
口口口口 |②---|
口口口口 |----|
56
口口口口 |①---|
口口口口 |----|
②口口② |②---|
①口口① |----|
57
②口口② |①---|
①③③① |②---|
口④④口 |③---|
口口口口 |④---|

不確定度: 0

最終更新:2014年12月12日 01:03