ラブラブキュートなハピハピサンデー
Lisapyon♡

ADVANCED

Level: 7
BPM: 165
Notes: 359

1
口口口口 |----|
口口口口 |----|
口口口口 |----|
口口口口 |----|
2
口口口口 |①---|
①②口口 |②---|
口口③④ |③---|
口口口口 |④---|
3
口口口口 |①---|
口口③④ |②---|
①②口口 |③---|
口口口口 |④---|
4
①口口口 |①---|
口②③口 |②---|
①口口④ |③---|
口口③口 |④---|
5
口口③口 |①---|
①口口④ |②---|
口②③口 |③---|
①口口口 |④---|
6
口口④⑤ |①---|
①⑦⑥口 |②-③-|
口口②口 |④-⑤-|
口口③口 |⑥-⑦-|
7
⑤口口⑤ |①-②-|
口口口口 |③-④-|
②口口④ |⑤---|
①口口③ |----|
8
⑥口③⑥ |①---|
口④②口 |②-③-|
口⑤口口 |--④-|
口①口口 |⑤-⑥-|
9
口口口口 |--①-|
①③②① |②-③-|
口④⑤口 |④-⑤-|
口⑦⑥口 |⑥-⑦-|
10
口口④⑤ |①---|
①⑦⑥口 |②-③-|
口口口② |④-⑤-|
口口口③ |⑥-⑦-|
11
⑤口口⑤ |①-②-|
口口口口 |③-④-|
②口口④ |⑤---|
①口口③ |----|
12
⑥口③⑥ |①---|
口④②口 |②-③-|
口⑤口口 |--④-|
口①口口 |⑤-⑥-|
13
口⑦⑥口 |--①-|
①③②① |②-③-|
口④⑤口 |④-⑤-|
口口口口 |⑥-⑦-|
14
⑥口口① |①-②-|
⑤②⑥口 |③-④-|
口口⑤③ |⑤---|
口④口口 |⑥---|
15
⑤口口① |①-②-|
口②⑥口 |③-④-|
⑦口口③ |⑤-⑥-|
口④口口 |⑦---|
16
口口口① |①---|
口①口② |②---|
⑤②④③ |③---|
口③口口 |④-⑤-|
17
口口口口 |--①-|
口口口口 |--②-|
口①口口 |③---|
口口③② |----|
18
③口口① |--①-|
④②③口 |②---|
口口④口 |③---|
口口口口 |④---|
19
⑤口⑦① |①-②-|
⑥②⑤口 |③-④-|
口口⑥③ |⑤---|
口④口口 |⑥-⑦-|
20
口⑤④① |①---|
口①口② |②---|
口②口③ |③---|
口③口口 |④-⑤-|
21
口口口口 |①-②-|
口①②口 |③-④-|
口④③口 |⑤---|
口⑤⑥口 |⑥---|
22
③口口口 |①---|
②口口口 |②---|
①口口口 |③---|
④口口口 |④---|
23
口口口口 |①---|
口口口④ |②-③-|
口口③口 |----|
口①②口 |④---|
24
⑤口④③ |①---|
口口口口 |②---|
口口口① |③-④-|
口口口② |--⑤-|
25
口口口口 |----|
口口口口 |----|
①口口口 |----|
口口口口 |①---|
26
②口口口 |①---|
①口口口 |②---|
口口口口 |③---|
③④口口 |④---|
27
口口口③ |①---|
口口口④ |②---|
口口②口 |③-④-|
口口①⑤ |--⑤-|
28
口口口口 |----|
口②口口 |--①-|
口①口口 |②---|
口③口口 |③---|
29
口口①口 |①---|
口口③口 |--②-|
口口②口 |③-④-|
口⑥⑤④ |⑤-⑥-|
30
③④口口 |①---|
②口口口 |②---|
①口口口 |③-④-|
⑤口口口 |--⑤-|
31
口口口口 |----|
口口口③ |①-②-|
口口②口 |----|
口口①口 |③---|
32
⑤口④③ |①---|
口口口口 |②---|
口口口① |③-④-|
口口口② |--⑤-|
33
口口口① |----|
口①口口 |----|
口口口口 |----|
口口口口 |①---|
34
口口⑥口 |①---|
口口⑤① |②---|
口①④② |③-④-|
口②③口 |⑤-⑥-|
35
口①口口 |①---|
口①口口 |----|
口①口口
口①口口

口口口口
口口口②
口③口口 |--②-|
口口口④ |③-④-|
36
①口口口 |①---|
②口①口 |②---|
③口②④ |③---|
口④③口 |④---|
37
①口③④ |①-②-|
①口③③ |③-④-|
口②口口
口口口口

口口口口
⑦口口口
口口⑥口 |--⑤-|
⑤口口口 |⑥-⑦-|
38
口①③口 |①---|
口②④① |②-③-|
口⑥口② |④---|
口口⑤口 |⑤-⑥-|
39
口口④口 |----|
④口③口 |①-②-|
③口①口 |③---|
①②口口 |④---|
40
口口口口 |①---|
口①⑥⑤ |②-③-|
⑤⑥④③ |④---|
口②口口 |⑤-⑥-|
41
口口口口 |----|
②①口口 |①-②-|
口口①② |③---|
③口④⑤ |④-⑤-|
42
口口③① |①---|
口①④② |②-③-|
口②口口 |④---|
口口⑤口 |⑤---|
43
⑤①口⑥ |①-②-|
②⑥⑤口 |③-④-|
口③口口 |⑤---|
④口口口 |⑥---|
44
口口口口 |--①-|
口口口③ |②-③-|
口口②口
口口口①

口口④口
口口口口
⑥⑤口口 |④---|
口口⑤⑥ |⑤-⑥-|
45
口口口口 |--①-|
⑥口①口 |--②-|
口⑤③② |③-④-|
②③④口 |⑤-⑥-|
46
口①③口 |①---|
口②④① |②-③-|
口口口② |④---|
口口⑤口 |⑤---|
47
口口⑤口 |①---|
⑤口④口 |②-③-|
④①②口 |④---|
②③口口 |⑤---|
48
口口口口 |①---|
⑥①口口 |②-③-|
⑤口④③ |④---|
口②口口 |⑤-⑥-|
49
口①口口 |--①-|
口口②口 |②-③-|
口③口口 |④---|
④口⑤⑥ |⑤-⑥-|
50
口口③① |①---|
口①④② |②-③-|
口②口口 |④---|
口口⑤口 |⑤---|
51
⑤①口⑥ |①-②-|
②⑥⑤口 |③-④-|
口③口口 |⑤---|
④口口口 |⑥---|
52
⑤口④口 |①---|
口⑥口③ |②-③-|
口口②口 |④---|
口①口① |⑤-⑥-|
53
口口口口 |①-②-|
口⑤⑤口 |--③-|
①口口③ |④---|
口②④口 |⑤---|
54
⑤口口⑥ |①-②-|
口口⑤⑦ |③-④-|
口口③④ |⑤---|
①②口口 |⑥-⑦-|
55
⑥口口⑤ |①-②-|
口⑤⑥口 |③-④-|
①②口口 |⑤---|
口口③④ |⑥---|
56
口口口口 |①---|
口口口口 |----|
①口口② |②---|
口②①口 |----|
57
②③口③ |①---|
①④②④ |②---|
口⑤①⑤ |③-④-|
口⑥口⑥ |⑤-⑥-|

不確定度: 0

最終更新:2014年12月12日 01:02