キライじゃないのぉ
まなみのりさ

BASIC

Level: 3
BPM: 142
Notes: 217

1
口口口口 |----|
口口口口 |----|
口口口口 |----|
口口口口 |----|
2
口口口口 |①---|
口口②口 |②---|
口口①口 |----|
口口口口 |----|
3
口口口口 |①---|
口①口口 |②---|
口②口口 |----|
口口口口 |----|
4
口口口口 |①---|
口口口④ |②---|
口口口③ |③---|
口①①② |④---|
5
口①①口 |①---|
口②②口 |----|
口口口口 |②---|
口口口口 |----|
6
④④②② |①---|
口口口口 |②---|
口③①口 |③---|
口口口口 |④---|
7
口口②② |①---|
口③③口 |②---|
口口①口 |③---|
口④④口 |④---|
8
②②④④ |①---|
口口口口 |②---|
口①③口 |③---|
口口口口 |④---|
9
②②口口 |①---|
口③③口 |②---|
口①口口 |③---|
口④④口 |④---|
10
口口口口 |①---|
口②口口 |----|
口口①口 |②---|
口口口口 |----|
11
口口口口 |①---|
①口口① |----|
②口口② |②---|
口口口口 |----|
12
口口口口 |①---|
口口②口 |----|
口①口口 |②---|
口口口口 |----|
13
口口口口 |①---|
①口口① |----|
②口口② |②---|
口口口口 |----|
14
口口口口 |①---|
口②口口 |----|
口口①口 |②---|
口口口口 |----|
15
口口口口 |①---|
①口口① |----|
②口口② |②---|
口口口口 |----|
16
口口④口 |①---|
口③口口 |②---|
口口②口 |③---|
口①口口 |④---|
17
①口口① |①---|
②口口② |②---|
③口口③ |③---|
口口口口 |----|
18
口口④口 |①---|
口口③口 |②---|
口口②口 |③---|
口口①口 |④---|
19
①口口① |①---|
口口口口 |----|
口口口口 |②---|
②口口② |----|
20
口④口口 |①---|
口③口口 |②---|
口②口口 |③---|
口①口口 |④---|
21
①口口① |①---|
口口口口 |----|
口口口口 |②---|
②口口② |----|
22
口④口口 |①---|
口口③口 |②---|
口②口口 |③---|
口口①口 |④---|
23
①口口① |①---|
口口口口 |----|
口口口口 |②---|
②口口② |----|
24
口口口口 |①---|
口①②口 |②---|
口③④口 |③---|
口口口口 |④---|
25
口口口口 |①---|
③口口③ |②---|
②口口② |③---|
①口口① |----|
26
口口口口 |①---|
口口口口 |----|
①口口口 |----|
口口口口 |----|
27
口口口口 |①---|
口口口口 |----|
口口口① |----|
口口口口 |----|
28
口口口口 |①---|
口①①口 |----|
口口口口 |----|
口口口口 |----|
29
口口口口 |----|
口口口口 |----|
口口口口 |----|
口口口口 |----|
30
口口口口 |①---|
口口口口 |----|
①口口口 |----|
口口口口 |----|
31
口口口口 |①---|
口口口口 |----|
口口口① |----|
口口口口 |----|
32
口口口口 |①---|
口①①口 |----|
口②②口 |②---|
口口口口 |----|
33
口口口口 |①---|
口口口口 |----|
口口口口 |----|
口①①口 |----|
34
口口口口 |①---|
口口口口 |②---|
①②③④ |③---|
口口口口 |④---|
35
口①①口 |①---|
口②②口 |②---|
口③③口 |③---|
口口口口 |----|
36
口口口口 |①---|
口口口口 |②---|
④③②① |③---|
口口口口 |④---|
37
口①①口 |①---|
口②②口 |②---|
口③③口 |③---|
口口口口 |----|
38
口口口口 |①---|
②口①口 |②---|
④口③口 |③---|
口口口口 |④---|
39
口①①口 |①---|
口②②口 |②---|
口③③口 |③---|
口口口口 |----|
40
口口口口 |①---|
①口口① |----|
口口口口 |----|
口口口口 |----|
41
①口口① |①---|
口口口口 |----|
口口口口 |----|
口口口口 |----|
42
口口口口 |①---|
口口口口 |②---|
①②③④ |③---|
口口口口 |④---|
43
口①①口 |①---|
口②②口 |②---|
口③③口 |③---|
口口口口 |----|
44
口口口口 |①---|
口口口口 |②---|
④③②① |③---|
口口口口 |④---|
45
口①①口 |①---|
口②②口 |②---|
口③③口 |③---|
口口口口 |----|
46
口口口口 |①---|
口①口② |②---|
口③口④ |③---|
口口口口 |④---|
47
口①①口 |①---|
口②②口 |②---|
口③③口 |③---|
口口口口 |----|
48
口口口口 |①---|
①口口① |----|
口口口口 |----|
口口口口 |----|
49
①口口① |①---|
口②②口 |----|
口口口口 |②---|
口口口口 |----|
50
④④②② |①---|
口口口口 |②---|
口③①口 |③---|
口口口口 |④---|
51
口口②② |①---|
口③③口 |②---|
口口①口 |③---|
口④④口 |④---|
52
②②④④ |①---|
口口口口 |②---|
口①③口 |③---|
口口口口 |④---|
53
②②口口 |①---|
口③③口 |②---|
口①口口 |③---|
口④④口 |④---|
54
口口口口 |①---|
口口口口 |----|
①口口① |----|
口口口口 |----|
55
口口口口 |①---|
口口①口 |----|
口口口口 |----|
口口口口 |----|
56
口口口口 |①---|
口①口口 |----|
口口口口 |----|
口口口口 |----|
57
口口口口 |①---|
口②②口 |----|
口①①口 |----|
口口口口 |--②-|

不確定度: 0

最終更新:2014年12月12日 01:01