キライじゃないのぉ
まなみのりさ

ADVANCED

Level: 5
BPM: 142
Notes: 309

1
口口口口 |----|
口口口口 |----|
口口口口 |----|
口口口口 |----|
2
口口口口 |①---|
口口口口 |----|
口①①口 |----|
口口口口 |----|
3
②口口② |①---|
口①①口 |--②-|
口口口口
口口口口

口口口口
口④③口
口口⑤口 |--③-|
口口口口 |④-⑤-|
4
口口口口 |①---|
口口口口 |②---|
口①口口 |----|
②口口② |----|
5
口口口口 |①---|
口口口口 |----|
口②③口 |②---|
口①①口 |③---|
6
④④①① |①---|
口②⑤口 |②-③-|
口⑥③口 |④---|
口口口口 |⑤-⑥-|
7
口口①① |①---|
口⑤⑤口 |②-③-|
口⑥⑥口 |④-⑤-|
③④④② |⑥---|
8
④④①① |①---|
口②⑤口 |②-③-|
口⑥③口 |④---|
口口口口 |⑤-⑥-|
9
口口①① |①---|
口④④口 |②-③-|
口⑤⑤口 |④-⑤-|
②⑥⑥③ |⑥---|
10
口口口③ |----|
②口口① |①---|
②口口① |②---|
口口口口 |--③-|
11
口口①口 |①---|
②③口口 |②-③-|
口口口口 |----|
口口口口 |----|
12
②口口① |----|
②口口① |①---|
口口口口 |②---|
口口口口 |----|
13
口①①口 |①---|
口口口口 |--②-|
口口口口 |----|
口②②口 |----|
14
口口口口 |----|
口口口口 |①---|
②②①① |②---|
口口口口 |----|
15
口口口口 |①---|
口①②口 |--②-|
口②①口 |----|
口口口口 |----|
16
④口口⑤ |①-②-|
口③⑥口 |③-④-|
口⑦②口 |⑤-⑥-|
⑧口口① |⑦-⑧-|
17
口口口口 |①-②-|
⑤口口⑤ |③-④-|
口④②口 |⑤---|
口③①口 |----|
18
②②①① |----|
口口口口 |①---|
口口③口 |②---|
口口口口 |--③-|
19
口口口口 |①---|
口③②口 |②-③-|
口①口口 |----|
口口口口 |----|
20
口口口口 |----|
口口口口 |①---|
②口口① |②---|
②口口① |----|
21
口①①口 |①---|
口口口口 |--②-|
口口口口 |----|
口②②口 |----|
22
口口口口 |----|
②②①① |①---|
口口口口 |②---|
口口口口 |----|
23
口口口口 |①---|
口口口口 |--②-|
②口口② |----|
①口口① |----|
24
④口口⑤ |①-②-|
口③⑥口 |③-④-|
口⑦②口 |⑤-⑥-|
⑧口口① |⑦-⑧-|
25
口⑥⑤口 |①-②-|
口口⑦口 |③-④-|
口④②口 |⑤-⑥-|
口③①口 |⑦---|
26
口口口口 |①---|
口口口口 |----|
口口口口 |②---|
①②口口 |----|
27
口口口口 |①---|
口口口口 |----|
口口口口 |②---|
口口①② |----|
28
口口口口 |①---|
口①①口 |----|
口①①口 |----|
口口口口 |----|
29
口口口口 |----|
口口口口 |----|
口②①口 |----|
口口口口 |①-②-|
30
口口口口 |①---|
口②①口 |----|
口口口口 |②---|
口口口口 |----|
31
口口口口 |①---|
口口口口 |----|
口②①口 |②---|
口口口口 |----|
32
口①①口 |①---|
⑥⑦口口 |②-③-|
⑤④③② |④-⑤-|
口口口口 |⑥-⑦-|
33
④③②① |①---|
口口口口 |②---|
口口口口 |③---|
口口口口 |④---|
34
口口口口 |①-②-|
⑦⑥③② |③-④-|
口口口口 |⑤-⑥-|
⑧⑤④① |⑦-⑧-|
35
口②①口 |①-②-|
口④③口 |③-④-|
口⑤⑥口 |----|
口口口口 |⑤-⑥-|
36
口口口口 |①-②-|
②③⑥⑦ |③-④-|
口口口口 |⑤-⑥-|
①④⑤⑧ |⑦-⑧-|
37
⑤①②⑤ |①-②-|
口③④口 |③-④-|
口口口口 |----|
口口口口 |⑤---|
38
口口口口 |①-②-|
⑦⑥③② |③-④-|
口口口口 |⑤-⑥-|
⑧⑤④① |⑦-⑧-|
39
口②①口 |①-②-|
口④③口 |③-④-|
⑤⑥⑦口 |--⑤-|
⑤⑥⑦口 |⑥-⑦-|
40
口③②① |----|
口③②① |----|
口口口口 |--①-|
口口口口 |②-③-|
41
口口口口 |----|
口口口口 |----|
口口口口 |----|
口口口口 |----|
42
⑦口③口 |①-②-|
口⑥口② |③-④-|
⑧口④口 |⑤-⑥-|
口⑤口① |⑦-⑧-|
43
口②①口 |①-②-|
口④③口 |③-④-|
口⑤⑥口 |----|
口口口口 |⑤-⑥-|
44
口③口⑦ |①-②-|
②口⑥口 |③-④-|
口④口⑧ |⑤-⑥-|
①口⑤口 |⑦-⑧-|
45
口①②口 |①-②-|
口③④口 |③-④-|
口口口口 |----|
口口口口 |----|
46
⑦口③口 |①-②-|
口⑥口② |③-④-|
⑧口④口 |⑤-⑥-|
口⑤口① |⑦-⑧-|
47
口②①口 |①-②-|
口④③口 |③-④-|
⑤⑥⑦口 |--⑤-|
⑤⑥⑦口 |⑥-⑦-|
48
口③②① |----|
口③②① |----|
口口口口 |--①-|
口口口口 |②-③-|
49
口口口口 |----|
口口口口 |--①-|
口④口口 |--②-|
①②③① |③-④-|
50
④④①① |①---|
口②⑤口 |②-③-|
口⑥③口 |④---|
口口口口 |⑤-⑥-|
51
口口①① |①---|
口⑤⑤口 |②-③-|
口⑥⑥口 |④-⑤-|
③④④② |⑥---|
52
④④①① |①---|
口②⑤口 |②-③-|
口⑥③口 |④---|
口口口口 |⑤-⑥-|
53
口口①① |①---|
口④④口 |②-③-|
口⑤⑤口 |④-⑤-|
②⑥⑥③ |⑥---|
54
口口口口 |①---|
①口口① |----|
口口②口 |②---|
口口口口 |----|
55
口口口口 |①---|
口口②口 |----|
口①口口 |②---|
口口口口 |----|
56
口口②口 |①---|
口①口口 |----|
口口口口 |②---|
口口口口 |----|
57
口①口口 |①---|
口口②口 |②---|
口③口口 |③---|
口口④口 |④---|

不確定度: 0

最終更新:2014年12月12日 01:00