キライじゃないのぉ
まなみのりさ

EXTREME

Level: 8
BPM: 142
Notes: 521

1
口口口口 |----|
口口口口 |----|
口口口口 |----|
口口口口 |----|
2
口口口口 |①-②-|
口③④⑦ |③-④-|
口①②⑥ |--⑤-|
口口口⑤ |⑥-⑦-|
3
口①口口 |①-②-|
口口②口 |③-④-|
口③口口
口口④口

⑤⑤⑤⑤
口口口口
口口口口 |----|
口口口口 |⑤---|
4
⑤⑥⑥⑥ |①-②-|
口口④④ |--③-|
口口③③ |--④-|
①口②② |⑤-⑥-|
5
口口口口 |①---|
口口口口 |--②③|
口①①口
③口口②

口口⑦口
口⑧口⑥
⑤口⑨④ |④⑤⑥-|
口口口口 |⑦⑧⑨-|
6
②①口① |①--②③④|
③口口口 |⑤-⑥-|
④口口口
⑤⑥口⑥

⑪⑫⑦⑪
口⑬⑧口
口⑭⑨口 |⑦⑧⑨⑩--|
口口⑩口 |⑪--⑫⑬⑭|
7
口口⑦口 |①-②-|
④口口⑦ |③-④-|
③⑥口口 |⑤-⑥-|
②①⑤② |⑦---|
8
②①口① |①--②③④|
③口口口 |⑤-⑥-|
④口口口
⑤⑥口⑥

⑪⑫⑦⑪
口⑬⑧口
口⑭⑨口 |⑦⑧⑨⑩--|
口口⑩口 |⑪--⑫⑬⑭|
9
口⑤⑤口 |①-②-|
④⑥⑥口 |③-④-|
③⑦⑦口 |⑤-⑥-|
②①口② |⑦---|
10
②口口④ |①---|
②③口口 |②---|
口⑤口口 |③---|
①口口① |④-⑤-|
11
②口④⑤ |①---|
②③口口 |②-③-|
口口口口 |--④-|
口口①口 |⑤---|
12
②口口④ |①---|
②③口口 |②---|
口口口口 |③---|
①口口① |④---|
13
②①①口 |①---|
口口口口 |②-③-|
口③③口
口口口口

口口④⑤
口口口口
口口口口 |--④-|
口口口口 |⑤---|
14
②口口④ |①---|
②③口口 |②---|
口口口口 |③---|
①口口① |④---|
15
②口④⑤ |①---|
口③③口 |②-③-|
口口口口 |--④-|
口①①口 |⑤---|
16
①口口⑤ |①-②-|
①②⑥⑤ |③-④-|
口⑦③口 |⑤-⑥-|
口④⑧口 |⑦-⑧-|
17
口⑥⑦口 |①-②-|
⑤口口⑤ |③-④-|
③口④③ |⑤-⑥-|
①②口① |⑦---|
18
②口口④ |①---|
②口口口 |②---|
口③③口 |③---|
①⑤口① |④-⑤-|
19
②口④⑤ |①---|
②口①口 |②-③-|
口③③口 |--④-|
口口口口 |⑤---|
20
②口口④ |①---|
口③口口 |②---|
②口口口 |③---|
①口口① |④---|
21
②③①口 |①---|
③口口① |②-③-|
口口口口
①口口③

口口④⑤
口口口口
口口口口 |--④-|
口口口口 |⑤---|
22
②②口④ |①---|
口口口口 |②---|
口③口口 |③---|
①口口① |④---|
23
②口④⑤ |①---|
口①③口 |②-③-|
口口口口 |--④-|
口③①口 |⑤---|
24
③③⑦⑦ |①-②-|
口④⑧口 |③-④-|
口①⑤口 |⑤-⑥-|
口⑥②口 |⑦-⑧-|
25
口⑦⑥口 |①-②-|
⑤口⑧⑤ |③-④-|
③④口③ |⑤-⑥-|
①口②① |⑦-⑧-|
26
①口口口 |①---|
口②口口 |----|
口口口口 |②---|
口口口口 |----|
27
口口口口 |①---|
口口口口 |----|
口口①口 |②---|
口口口② |----|
28
口口口口 |①---|
口①①口 |----|
口①①口 |----|
口口口口 |----|
29
口口口口 |①---|
口④口口 |----|
口口③口 |②---|
口②①口 |③-④-|
30
口口①① |①---|
口②口口 |----|
口口②口 |②---|
口口口口 |----|
31
口口口口 |①---|
口口①口 |----|
口①口口 |②---|
②②口口 |----|
32
①③②① |①---|
口⑤④口 |②-③-|
口⑦⑥口 |④-⑤-|
口口口口 |⑥-⑦-|
33
口口口口 |①②③④|
口口口⑤ |⑤-⑥⑦|
④口口③
②⑦⑥①

口口口⑪
⑫口⑩口
口⑨⑧⑬ |⑧⑨⑩-|
口口口口 |⑪⑫⑬-|
34
①口①口 |①-②-|
口③口③ |③-④-|
口口口口
口②④口

口⑤口⑤
⑦口⑦口
口口口口 |⑤-⑥-|
口⑧口⑥ |⑦-⑧-|
35
①④①口 |①-②-|
④口口口 |③-④-|
口②口③
口口③口

口口⑤⑥
口⑦口口
口口口口 |--⑤-|
口口口口 |⑥-⑦-|
36
⑥②④⑧ |①-②-|
口口口口 |③-④-|
⑤③⑤③ |⑤-⑥-|
①⑦①⑦ |⑦-⑧-|
37
⑥⑤③口 |①-②-|
口②口③ |③-④-|
④口口口 |--⑤-|
①④①口 |⑥---|
38
口口④口 |①-②-|
①口①口 |③-④-|
口③口③
②口口口

⑧口口口
口⑤口⑤
口口口口 |⑤-⑥-|
⑦口⑦⑥ |⑦-⑧-|
39
口①口① |①-②-|
口口口口 |③-④-|
③口②④
口③④口

⑤⑥⑥⑤
口口口口
口⑦⑦口 |--⑤-|
口口口口 |⑥-⑦-|
40
①口口口 |----|
口④④口 |①---|
口口口口 |--②-|
②③③② |③-④-|
41
口口口① |----|
口口口口 |①---|
口口口口
口口口口

口口⑤⑥
口④口口
口口③口 |②-③④|
口②②口 |⑤-⑥-|
42
③口口口 |①-②-|
①口①③ |③-④-|
口口口口
④②④②

口口⑤口
⑦⑤⑦口
口⑥⑧⑥ |⑤-⑥-|
口⑧口口 |⑦-⑧-|
43
①①口④ |①-②-|
口口口④ |③-④-|
②口口口
②口③③

⑥⑤口口
口口⑦口
口口口口 |--⑤-|
口口口口 |⑥-⑦-|
44
⑥④⑥④ |①-②-|
①⑧⑧① |③-④-|
⑦③③⑦ |⑤-⑥-|
⑤②⑤② |⑦-⑧-|
45
③③口① |①-②-|
口口口① |③-④-|
④口口口
④口②②

口口⑤⑥
口口口口
口口口口 |--⑤-|
口口口口 |⑥---|
46
⑦⑦⑤⑤ |①-②-|
④①③② |③-④-|
①④②③ |⑤-⑥-|
⑧⑧⑥⑥ |⑦-⑧-|
47
口口口口 |①-②-|
④③③④ |③-④-|
②①①②
口口口口

口口口口
口⑦⑦口
口⑥⑥口 |--⑤-|
口⑤⑤口 |⑥-⑦-|
48
①②②口 |----|
口③③口 |①---|
口④④口 |--②-|
口口口口 |③-④-|
49
口口口口 |①②③④|
口口口⑤ |⑤-⑥⑦|
④口口③
②⑦⑥①

口口口口
口口⑩口
口⑨⑧口 |⑧⑨⑩-|
口口口⑪ |⑪---|
50
②①口① |①--②③④|
③口口口 |⑤-⑥-|
④口口口
⑤⑥口⑥

⑪⑫⑦⑪
口⑬⑧口
口⑭⑨口 |⑦⑧⑨⑩--|
口口⑩口 |⑪--⑫⑬⑭|
51
口口⑦口 |①-②-|
④口口⑦ |③-④-|
③⑥口口 |⑤-⑥-|
②①⑤② |⑦---|
52
②①口① |①--②③④|
③口口口 |⑤-⑥-|
④口口口
⑤⑥口⑥

⑪⑫⑦⑪
口⑬⑧口
口⑭⑨口 |⑦⑧⑨⑩--|
口口⑩口 |⑪--⑫⑬⑭|
53
口⑤⑤口 |①-②-|
④⑥⑥口 |③-④-|
③⑦⑦口 |⑤-⑥-|
②①口② |⑦---|
54
①口口① |①---|
口口④口 |②---|
口③口口 |③---|
②口口② |④---|
55
口口口口 |①-②-|
口口口口 |③-④-|
⑤⑥⑦⑧ |⑤-⑥-|
①②③④ |⑦-⑧-|
56
④③②① |①-②-|
⑧⑦⑥⑤ |③-④-|
口口口口 |⑤-⑥-|
口口口口 |⑦-⑧-|
57
口口口⑧ |①-②-|
⑤⑥口⑦ |③-④-|
口口④② |-⑤⑥-|
口口③① |⑦-⑧-|

不確定度: 0

最終更新:2014年12月12日 00:59