HeartLatte
TnyGinA

BASIC

Level: 3
BPM: 135
Notes: 266

1
口口口口 |----|
口口口口 |----|
口口口口 |----|
口口口口 |----|
2
口口口口 |①---|
口口口口 |----|
口口口口 |----|
口①①口 |----|
3
口口口口 |①---|
口口口口 |----|
口①①口 |----|
口口口口 |----|
4
口口口口 |①---|
口①①口 |----|
口口口口 |----|
口口口口 |----|
5
口①①口 |①---|
口口口口 |----|
口口口口 |----|
口口口口 |----|
6
口口口口 |①---|
口口口口 |②---|
口③④口 |③---|
口①②口 |④---|
7
口③④口 |①---|
口①②口 |②---|
口口口口 |③---|
口口口口 |④---|
8
①口口② |①---|
③口口④ |②---|
口口口口 |③---|
口口口口 |④---|
9
口口口口 |①---|
口口口口 |②---|
①口口② |③---|
③口口④ |④---|
10
口口口口 |①---|
口口口口 |----|
口①①口 |----|
口口口口 |----|
11
口口口口 |①---|
口口口口 |----|
口口口口 |----|
口①①口 |----|
12
口口口口 |①---|
口①口口 |----|
口口①口 |----|
口口口口 |----|
13
口口口口 |①---|
口口①口 |----|
口①口口 |----|
口口口口 |----|
14
口口口口 |①---|
口①②口 |----|
口口口口 |②---|
口口口口 |----|
15
口口口口 |①---|
口口口口 |----|
口①②口 |②---|
口口口口 |----|
16
口口口口 |①---|
口口口口 |----|
口①②口 |②---|
口②①口 |----|
17
口口口口 |①---|
口口口口 |②---|
①②③④ |③---|
口口口口 |④---|
18
口②④口 |①---|
口①③口 |②---|
口口口口 |③---|
口口口口 |④---|
19
口口口口 |①---|
口②④口 |②---|
口①③口 |③---|
口口口口 |④---|
20
口②④口 |①---|
口①③口 |②---|
口口口口 |③---|
口口口口 |④---|
21
口口口口 |①---|
口②④口 |②---|
口①③口 |③---|
口口口口 |④---|
22
②②④④ |①---|
口①③口 |②---|
口口口口 |③---|
口口口口 |④---|
23
口口口口 |①---|
②②④④ |②---|
口①③口 |③---|
口口口口 |④---|
24
②②④④ |①---|
口①③口 |②---|
口口口口 |③---|
口口口口 |④---|
25
口口口口 |①---|
①口口① |②---|
②口口② |③---|
③④④③ |④---|
26
口口口口 |①---|
口口口口 |----|
①②口口 |②---|
口口口口 |----|
27
口口口口 |①---|
口口口口 |----|
口口①② |②---|
口口口口 |----|
28
口①口口 |①---|
口口②口 |----|
口口口口 |②---|
口口口口 |----|
29
口口①口 |①---|
口②口口 |----|
口口口口 |②---|
口口口口 |----|
30
口口口口 |①---|
口口口口 |----|
①②口口 |②---|
口口口口 |----|
31
口口口口 |①---|
口口口口 |----|
口口①② |②---|
口口口口 |----|
32
口口口口 |①---|
口口口口 |----|
口②②口 |②---|
口①①口 |----|
33
口②②口 |①---|
口①①口 |----|
口口口口 |②---|
口口口口 |----|
34
口口口口 |①---|
③口口口 |②---|
②口口口 |③---|
①口口口 |----|
35
口口口口 |①---|
口③口口 |②---|
口②口口 |③---|
口①口口 |----|
36
口口口口 |①---|
口口③口 |②---|
口口②口 |③---|
口口①口 |----|
37
口口口口 |①---|
口口口③ |②---|
口口口② |③---|
口口口① |----|
38
口口口口 |①---|
口口口口 |②---|
口③④口 |③---|
口①②口 |④---|
39
口③④口 |①---|
口①②口 |②---|
口口口口 |③---|
口口口口 |④---|
40
①口口口 |①---|
②口口口 |②---|
③口口口 |③---|
④口口口 |④---|
41
口口口④ |①---|
口口口③ |②---|
口口口② |③---|
口口口① |④---|
42
口④口④ |①---|
口③口③ |②---|
口②口② |③---|
口①口① |④---|
43
①口①口 |①---|
②口②口 |②---|
口③口③ |③---|
口④口④ |④---|
44
口①口① |①---|
口②口② |②---|
③口③口 |③---|
④口④口 |④---|
45
④口④口 |①---|
口③口③ |②---|
②口②口 |③---|
口①口① |④---|
46
口①口① |①---|
②口②口 |②---|
口③口③ |③---|
④口④口 |④---|
47
①口①口 |①---|
②口②口 |②---|
口③口③ |③---|
口④口④ |④---|
48
口④口④ |①---|
口③口③ |②---|
②口②口 |③---|
①口①口 |④---|
49
口口口口 |①---|
口口口口 |②---|
④②①③ |③---|
③①②④ |④---|
50
④口口④ |①---|
③口口③ |②---|
口②②口 |③---|
口①①口 |④---|
51
口①①口 |①---|
口②②口 |②---|
③口③口 |③---|
④口④口 |④---|
52
口①①口 |①---|
口②②口 |②---|
口③口③ |③---|
口④口④ |④---|
53
口④口④ |①---|
③口③口 |②---|
口②口② |③---|
①口①口 |④---|
54
①口①口 |①---|
口②口② |②---|
③口③口 |③---|
口④口④ |④---|
55
口口口口 |①---|
口①①口 |----|
口口口口
口口口口

口口口口
口④④口
口②③口 |②--③|
口③②口 |--④-|
56
口口口口 |----|
口③③口 |----|
口①②口 |①--②|
口②①口 |--③-|
57
④④④④ |①---|
③③③③ |②---|
②口口② |③---|
①口口① |④---|
58
口口口口 |①---|
口口口口 |----|
口①①口 |----|
口口口口 |----|

不確定度: 0

最終更新:2014年12月12日 00:57