HeartLatte
TnyGinA

ADVANCED

Level: 5
BPM: 135
Notes: 470

1
口口口口 |----|
口口口口 |----|
口口口口 |----|
口口口口 |----|
2
口④口口 |①---|
口③口口 |②---|
口②口口 |③---|
①①口口 |④---|
3
口口④口 |①---|
口口③口 |②---|
口口②口 |③---|
口口①① |④---|
4
口④口口 |①---|
口③口口 |②---|
口②口口 |③---|
①①口口 |④---|
5
口口④口 |①---|
口口③口 |②---|
口口②口 |③---|
口口①① |④---|
6
口④口口 |①---|
③③口口 |②---|
口②口口 |③---|
①①口口 |④---|
7
口口④口 |①---|
口口③③ |②---|
口口②口 |③---|
口口①① |④---|
8
口④口口 |①---|
③③口口 |②---|
口②口口 |③---|
①①口口 |④---|
9
口口口口 |①---|
口④④口 |②---|
③②②③ |③---|
口①①口 |④---|
10
①①①① |①-②-|
②⑤⑥② |③-④-|
③⑦口③ |--⑤-|
④口口④ |⑥-⑦-|
11
口口③口 |①-②-|
口口口口 |--③-|
口口①口
口②口口

口口口口
口④⑤口
口⑥⑦口 |④-⑤-|
口口口口 |⑥-⑦-|
12
口口口口 |①-②-|
③④口口 |③-④-|
②口口口
口①口口

口口口口
口口⑤⑥
口口口⑦ |⑤-⑥-|
口⑧⑧口 |⑦-⑧-|
13
口口口口 |--①-|
口①①口 |----|
口口口口 |----|
口②口口 |--②-|
14
口口口口 |①-②-|
口②①口 |③-④-|
④口③口
口口口口

口口口口
口⑥⑦口
口口口⑤ |--⑤-|
口口口口 |⑥-⑦-|
15
口口口口 |①-②-|
①④④① |--③-|
⑥③③口 |④-⑤-|
②⑤⑤② |--⑥-|
16
口口口③ |--①-|
口①②口 |②-③-|
⑥⑤④口 |--④-|
口口口口 |⑤-⑥-|
17
口口口口 |①---|
④③②① |②---|
口口口口 |③---|
口口口口 |④---|
18
⑦口⑧口 |①-②-|
⑤口⑥口 |③-④-|
③口④口 |⑤-⑥-|
①①②口 |⑦-⑧-|
19
口⑦口⑧ |①-②-|
口⑤口⑥ |③-④-|
口③口④ |⑤-⑥-|
①①口② |⑦-⑧-|
20
⑦口⑧口 |①-②-|
⑤口⑥口 |③-④-|
③口④口 |⑤-⑥-|
①①②口 |⑦-⑧-|
21
口⑦口⑧ |①-②-|
⑤口⑥口 |③-④-|
口③口④ |⑤-⑥-|
①①口② |⑦-⑧-|
22
⑦口⑧⑧ |①-②-|
⑤口⑥口 |③-④-|
③口④④ |⑤-⑥-|
①①②口 |⑦-⑧-|
23
口⑦⑧⑧ |①-②-|
口⑤⑥口 |③-④-|
口③④④ |⑤-⑥-|
①①②口 |⑦-⑧-|
24
⑦口⑧⑧ |①-②-|
⑤口⑥口 |③-④-|
③口④④ |⑤-⑥-|
①①②口 |⑦-⑧-|
25
⑦⑦⑧⑧ |①-②-|
⑤⑤⑥⑥ |③-④-|
③③④④ |⑤-⑥-|
①①②② |⑦-⑧-|
26
口⑤口口 |①-②-|
口③④口 |③④-⑤|
①口②口
口口口口

口口⑧口
口口口口
口口⑦口 |--⑥-|
口口⑥口 |⑦-⑧-|
27
口口口口 |--①-|
口①口口 |--②-|
口口②口
口口口口

口口口口
口④口口
口口口口 |--③-|
口③口口 |--④-|
28
口口口口 |①-②-|
口口①口 |③-④-|
口②③口
口④口口

口口口口
口⑥⑦口
⑧口口口 |⑤-⑥⑦|
口口⑤口 |--⑧-|
29
口口口口 |①-②-|
口口口口 |--③-|
口①②口
口口口③

口口口口
口口口口
口⑤口口 |--④-|
口④口口 |--⑤-|
30
口④③⑤ |①-②-|
口②口口 |③④-⑤|
口口①口
口口口口

口口口口
⑥⑦⑧口
口口口口 |--⑥-|
口口口口 |⑦-⑧-|
31
口口口口 |①-②-|
口③口口 |--③-|
口④②① |④-⑤-|
口⑤口⑥ |--⑥-|
32
口口口口 |①-②③|
⑧⑥⑦⑧ |--④-|
口②③① |⑤-⑥⑦|
④口⑤口 |--⑧-|
33
口口口口 |①---|
口口口口 |----|
①口口① |----|
口口口口 |----|
34
口口口口 |①-②-|
口口口口 |③-④-|
①③口口
②④口口

口口口口
口⑥⑦口
口⑧⑤口 |⑤-⑥⑦|
口口口口 |--⑧-|
35
口口口口 |①-②-|
口⑥⑦口 |③-④-|
口⑤③① |⑤-⑥⑦|
口⑧④② |--⑧-|
36
①口口① |①-②-|
②④④② |--③-|
口⑤⑤口 |--④-|
③⑥⑥③ |⑤-⑥-|
37
口口口口 |----|
口口口口 |----|
口口口口 |----|
口①口口 |--①-|
38
口口口口 |①-②-|
口口④④ |③-④-|
口①③口
口口②口

口口口口
⑦⑦口口
口⑥口口 |--⑤-|
口⑤口口 |⑥-⑦-|
39
口口口口 |--①-|
④④③③ |②-③-|
口口②口 |--④-|
口口①口 |----|
40
①③口② |①--②|
口口口口 |--③-|
②口口①
口口③口

口口④口
口口口口
⑤⑤⑤⑤ |--④-|
口④口口 |--⑤-|
41
口①②口 |--①-|
口②①口 |--②-|
口口口口 |----|
口口口口 |----|
42
口口口口 |①-②-|
口⑦⑧口 |③-④-|
⑤③④⑥ |⑤-⑥-|
口①②口 |⑦-⑧-|
43
②①①② |①-②-|
③口口③ |③-④-|
④⑦⑦④ |--⑤-|
⑥⑤⑤⑥ |⑥-⑦-|
44
口②②口 |①-②-|
口①①口 |--③-|
口口口口
口③③口

⑥⑦⑦⑥
⑤口口⑤
④口口④ |④-⑤-|
口口口口 |⑥-⑦-|
45
口口口口 |①-②-|
口③④口 |③-④-|
口①②口
口口口口

⑤⑥⑦口
口口口口
口⑧⑧口 |⑤-⑥-|
口口口口 |⑦-⑧-|
46
口②②口 |--①-|
口①①口 |----|
口口口口 |----|
口口口口 |--②-|
47
①口口① |①-②-|
②⑥⑦② |③-④-|
③⑤⑤③ |--⑤-|
④口口④ |⑥-⑦-|
48
①①②② |①-②-|
口③④口 |--③-|
口⑤⑤口 |④-⑤-|
⑥⑥⑥⑥ |--⑥-|
49
③③③③ |--①-|
口①②口 |②-③-|
口④⑤口 |--④-|
⑥⑥⑥⑥ |⑤-⑥-|
50
口口口口 |--①-|
①②②① |----|
口口口口 |----|
口口口口 |--②-|
51
②①①② |①-②-|
③口口③ |③-④-|
④⑦⑦④ |--⑤-|
⑥⑤⑤⑥ |⑥-⑦-|
52
口②②口 |①-②-|
口①①口 |--③-|
口口口口
口③③口

⑥⑦⑦⑥
⑤口口⑤
④口口④ |④-⑤-|
口口口口 |⑥-⑦-|
53
口口口口 |①-②-|
口③口④ |③-④-|
口①②口
口口口口

口⑤⑥口
口口口口
口⑦⑦口 |--⑤-|
口口口口 |⑥-⑦-|
54
口口口口 |--①-|
口①①口 |----|
口口口口
口口口口

口口口口
口②②口
口口口口 |----|
口口口口 |--②-|
55
①①①① |①---|
④④④④ |----|
③③③③ |②--③|
②②②② |--④-|
56
①口口① |----|
④④④④ |①---|
③③③③ |②--③|
②②②② |--④-|
57
⑥②①⑤ |①-②-|
口口口口 |③-④-|
口口口口 |⑤-⑥-|
⑧④③⑦ |⑦-⑧-|
58
口口口口 |①---|
口①①口 |----|
口口口口 |----|
口口口口 |----|

不確定度: 0

最終更新:2014年12月12日 00:57