HeartLatte
TnyGinA

EXTREME

Level: 8
BPM: 135
Notes: 611

1
口口口口 |----|
口口口口 |----|
口口口口 |----|
口口口口 |----|
2
③口口口 |①--②|
口口口口 |--③-|
口口口口
②口口①

口口口④
口口口口
口口口口 |-④--|
口口⑥⑤ |⑤-⑥-|
3
②口口③ |①--②|
口口口口 |--③-|
口口口口
①口口口

口口口口
口口口口
⑥口口口 |-④--|
⑤口口④ |⑤-⑥-|
4
①口口② |①--②|
口口口口 |--③-|
口口口口
口口口③

⑤⑥口口
口口口口
口口口口 |-④--|
④口口口 |⑤-⑥-|
5
口口口① |①--②|
口口口口 |--③-|
口口口口
③口口②

④口口⑤
口口口⑥
口口口口 |-④--|
口口口口 |⑤-⑥-|
6
③口口口 |①--②|
口③口口 |--③-|
口口①口
②口口①

口口口④
口口口口
口口口口 |-④--|
口口⑥⑤ |⑤-⑥-|
7
②口口③ |①--②|
口口③口 |--③-|
口①口口
①口口口

口口口口
口口口口
⑥口口口 |-④--|
⑤口口④ |⑤-⑥-|
8
①口口② |①--②|
口①口口 |--③-|
口口③口
口口口③

⑤⑥口口
口口口口
口口口口 |-④--|
④口口口 |⑤-⑥-|
9
口⑫⑪① |①-②-|
口⑩⑨② |③-④-|
口⑧⑦③ |⑤⑥⑦⑧|
口⑥⑤④ |⑨⑩⑪⑫|
10
口口口口 |①-②-|
①口口① |③-④-|
②口口②
③④④③

⑥⑤⑤⑥
⑦口口⑦
口口口口 |--⑤-|
口口口口 |⑥-⑦-|
11
口口口口 |①-②-|
口③③口 |--③-|
①口口①
②口口②

④口口④
⑤口口⑤
⑥口口⑥ |④-⑤-|
口⑦⑦口 |⑥-⑦-|
12
口口口口 |①-②-|
⑥④②⑤ |③-④-|
⑧③①⑦ |⑤-⑥-|
口口口口 |⑦-⑧-|
13
①口口① |--①-|
口口口口 |----|
口②②口 |----|
口口口口 |--②-|
14
②①①② |①-②-|
③⑥⑥③ |③-④-|
④⑦⑦⑤ |--⑤-|
口④⑤口 |⑥-⑦-|
15
①②①② |①-②-|
③口③口 |--③-|
口④口④ |④-⑤-|
⑤口⑤⑥ |--⑥-|
16
③口口口 |--①-|
口④②⑥ |②-③-|
口①⑤口 |--④-|
口口口口 |⑤-⑥-|
17
口口口口 |①-②-|
⑨⑪⑫⑩ |③-④-|
⑦⑤⑥⑧ |⑤⑥⑦⑧|
④③②① |⑨⑩⑪⑫|
18
⑦口⑧⑧ |①-②-|
⑤口⑥⑥ |③-④-|
③口④④ |⑤-⑥-|
①口②② |⑦-⑧-|
19
口⑦⑧⑧ |①-②-|
口⑤⑥⑥ |③-④-|
口③④④ |⑤-⑥-|
口①②② |⑦-⑧-|
20
⑦口⑧⑧ |①-②-|
⑤口⑥⑥ |③-④-|
③口④④ |⑤-⑥-|
①口②② |⑦-⑧-|
21
⑦口⑥⑧ |①-②-|
口⑤⑧⑥ |③-④-|
③口②④ |⑤-⑥-|
口①④② |⑦-⑧-|
22
⑦口⑧⑧ |①-②-|
⑤口⑥⑥ |③-④-|
③口④④ |⑤-⑥-|
①口②② |⑦-⑧-|
23
口⑦⑧⑧ |①-②-|
口⑤⑥⑥ |③-④-|
口③④② |⑤-⑥-|
口①②④ |⑦-⑧-|
24
⑦口⑧⑧ |①-②-|
⑤口⑥④ |③-④-|
③口④⑥ |⑤-⑥-|
①口②② |⑦-⑧-|
25
⑨⑩⑪⑫ |①-②-|
⑤⑥⑦⑧ |③-④-|
③③④④ |⑤⑥⑦⑧|
①①②② |⑨⑩⑪⑫|
26
口⑤⑧⑧ |①-②-|
口口③口 |③④-⑤|
⑦①④口 |--⑥-|
⑥口②口 |⑦-⑧-|
27
口口口口 |--①-|
①①口口 |--②-|
④口②② |--③-|
③③口口 |--④-|
28
口口③① |①-②-|
口口口口 |③-④-|
口②口口
④口口口

口口口⑦
口口⑤口
⑧口口口 |⑤-⑥⑦|
口⑥口口 |--⑧-|
29
口口①口 |①-②-|
③口②④ |--③-|
口③④口 |--④-|
口⑤口口 |--⑤-|
30
口④③口 |①-②-|
口口①⑤ |③④-⑤|
口②口口
口口口口

口口⑧口
⑦口口口
口口口口 |--⑥-|
口口⑥口 |⑦-⑧-|
31
口口口① |①-②-|
口口③② |--③-|
口④口口 |④-⑤-|
⑤口口⑥ |--⑥-|
32
口⑦⑥口 |①-②③|
①③②⑧ |--④-|
口口口口 |⑤-⑥⑦|
⑤口④⑧ |--⑧-|
33
口口口口 |①---|
①口①口 |----|
①①①口 |----|
口①口口 |----|
34
口⑥⑦口 |①-②-|
⑤口⑧⑤ |③-④-|
①③①③ |⑤-⑥⑦|
②④②④ |--⑧-|
35
口口口口 |①-②-|
口口口口 |③-④-|
③①③①
④②④②

口⑦⑥口
⑤口口⑤
口⑧⑧口 |⑤-⑥⑦|
口口口口 |--⑧-|
36
①③③① |①-②-|
口②②口 |--③-|
口口口口
口口口口

口口口口
④⑥⑥⑤
口④⑤口 |--④-|
口口口口 |⑤-⑥-|
37
口口口口 |----|
口口口口 |----|
口口口口 |----|
口口口① |--①-|
38
①②③④ |①-②-|
①②③④ |③-④-|
⑦⑥⑤口 |--⑤-|
⑦⑥⑤口 |⑥-⑦-|
39
口①②③ |--①-|
口①②③ |②-③-|
口口④口 |--④-|
口口④口 |----|
40
①③②③ |①--②|
②口口① |--③-|
口口③口
②口口①

口口口口
⑤④⑤④
口口口口 |--④-|
口⑤④口 |--⑤-|
41
①②①② |--①-|
口口口口 |--②-|
口①②口 |----|
口口口口 |----|
42
口⑥⑤口 |①②③④|
④⑧⑦③ |⑤⑥⑦⑧|
口②①口
口口口口

⑭口口⑬
口口口口
⑩⑫⑪⑨ |⑨⑩⑪⑫|
口口⑮口 |⑬⑭⑮-|
43
口口①口 |①-②-|
④③②① |③-④-|
③④口②
④口口口

口口口⑥
口口⑥⑦
口口⑦口 |--⑤-|
口口⑤⑤ |⑥-⑦-|
44
口口口口 |①-②-|
①②口口 |--③-|
②①口口
口②③③

口口④口
⑦⑥⑤④
⑥⑦口⑤ |④-⑤-|
⑦口口口 |⑥-⑦-|
45
③口④口 |①-②-|
口④口③ |③-④-|
口口②口
口②①①

口⑤口⑥
⑥口⑤口
口⑦⑦口 |⑤-⑥-|
⑧口口⑧ |⑦-⑧-|
46
口①①口 |--①-|
③④口② |-②--|
口口口口 |③④-⑤|
口⑤⑥⑥ |--⑥-|
47
口口①口 |①-②-|
口③②① |③-④-|
③④口②
④口口口

口口⑦口
口口⑥⑦
口口口⑥ |--⑤-|
口⑤⑤口 |⑥-⑦-|
48
②①口口 |①-②-|
①②口口 |--③-|
口口口③
口口③口

口口⑤④
⑥口④⑤
口口口口 |④-⑤-|
⑥口口口 |--⑥-|
49
③口口③ |--①-|
⑥口口⑥ |②-③-|
⑤①②⑤ |--④-|
④②①④ |⑤-⑥-|
50
⑩⑧⑦⑨ |①②③④|
⑫⑥⑤⑪ |⑤⑥⑦⑧|
⑭④③⑬ |⑨⑩⑪⑫|
⑯②①⑮ |⑬⑭⑮⑯|
51
口④③口 |①-②-|
口②①口 |③-④-|
口①②口
口③④口

口口口⑤
⑥⑦口口
⑦⑥口口 |--⑤-|
⑤口口口 |⑥-⑦-|
52
口口口口 |①-②-|
口口①② |--③-|
口口②①
③③口口

口④口⑥
④⑤⑥⑦
⑤④⑦⑥ |④-⑤-|
口口口口 |⑥-⑦-|
53
③④③④ |①-②-|
口口口口 |③-④-|
口口口口
①②①②

口口口口
口口口口
⑤⑦⑦⑤ |--⑤-|
口⑥⑥口 |⑥-⑦-|
54
①口口① |--①-|
③④口② |-②--|
⑥口口⑥ |③④-⑤|
口⑤口口 |--⑥-|
55
①①①① |①---|
④④④④ |----|
③③③③ |②--③|
②②②② |--④-|
56
①②口③ |--①②|
⑤⑤⑤⑤ |③---|
④④④④ |④--⑤|
⑥⑥⑥⑥ |--⑥-|
57
①①③③ |①-②-|
④口口口 |③-④-|
④②②口
口口口口

⑥⑥口口
口⑫⑪⑤
口⑩⑨⑤ |⑤-⑥-|
口⑧⑦口 |⑦⑧⑨⑩⑪⑫|

不確定度: 0

最終更新:2014年12月12日 00:57