らいらら
KRD8

BASIC

Level: 3
BPM: 155
Notes: 230

1
口口口口 |----|
口口口口 |----|
口口口口 |----|
口口口口 |----|
2
口口口口 |①---|
口口口口 |----|
口口口口 |----|
口①口口 |----|
3
口口口口 |①---|
口口口口 |----|
口口口口 |----|
口口①口 |----|
4
口口口口 |①---|
口口口口 |----|
口①口口 |----|
口口口口 |----|
5
口口口口 |①---|
口口口口 |----|
口口①口 |----|
口口口口 |----|
6
口口口口 |①---|
口①①口 |----|
口口口口 |----|
口口口口 |----|
7
①口口口 |①---|
口②口口 |②---|
口口③口 |③---|
口口口口 |----|
8
口口口口 |①---|
口口口口 |②---|
口③④口 |③---|
口①②口 |④---|
9
口口口① |①---|
口口②口 |②---|
口③口口 |③---|
口口口口 |----|
10
口口口口 |①---|
口口口口 |②---|
口④③口 |③---|
口②①口 |④---|
11
①②④③ |①---|
口口口口 |②---|
口口口口 |③---|
口口口口 |④---|
12
口口口口 |①---|
①②④③ |②---|
口口口口 |③---|
口口口口 |④---|
13
口口口口 |①---|
口口口口 |----|
口②②口 |②---|
口①①口 |----|
14
口②②口 |①---|
口①①口 |----|
口口口口 |②---|
口口口口 |----|
15
①②④③ |①---|
口口口口 |②---|
口口口口 |③---|
口口口口 |④---|
16
口口口口 |①---|
①②④③ |②---|
口口口口 |③---|
口口口口 |④---|
17
口口口口 |①---|
口口口口 |----|
口②②口 |②---|
口①①口 |----|
18
口口口口 |①---|
口①①口 |----|
口口口口 |----|
口口口口 |----|
19
①②④③ |①---|
口口口口 |②---|
口口口口 |③---|
口口口口 |④---|
20
口口口口 |①---|
①②④③ |②---|
口口口口 |③---|
口口口口 |④---|
21
口④④口 |①---|
口③③口 |②---|
口②②口 |③---|
口①①口 |④---|
22
口口口口 |①---|
②口口① |②---|
口③③口 |③---|
口口口口 |----|
23
①②④③ |①---|
口口口口 |②---|
口口口口 |③---|
口口口口 |④---|
24
口口口口 |①---|
①②④③ |②---|
口口口口 |③---|
口口口口 |④---|
25
口④④口 |①---|
口③③口 |②---|
口②②口 |③---|
口①①口 |④---|
26
口口口口 |①---|
②口口① |②---|
口③③口 |③---|
口口口口 |----|
27
口口②① |①---|
口③口口 |②---|
口④口口 |③---|
口口口口 |④---|
28
口口④口 |①---|
口口口③ |②---|
口口口② |③---|
口口①口 |④---|
29
口口口口 |①---|
口①①口 |----|
口②②口 |②---|
口口口口 |----|
30
口口口口 |①---|
口口口口 |----|
口口口口 |----|
口①①口 |----|
31
口口口口 |①---|
口口口口 |----|
口口口口 |②---|
口①②口 |----|
32
口口口口 |①---|
口口口口 |----|
口①②口 |②---|
口口口口 |----|
33
口口口口 |①---|
口①①口 |----|
口口口口 |----|
口口口口 |----|
34
口口口口 |①---|
口口口口 |----|
口①①口 |----|
口口口口 |----|
35
口口口口 |①---|
口①①口 |----|
口口口口 |----|
口口口口 |----|
36
口口口口 |①---|
口口口口 |----|
口①①口 |----|
口口口口 |----|
37
口口口口 |①---|
口口③④ |②---|
①②口口 |③---|
口口口口 |④---|
38
口口口口 |①---|
④③口口 |②---|
口口②① |③---|
口口口口 |④---|
39
口①②口 |①---|
口④③口 |②---|
口口口口 |③---|
口口口口 |④---|
40
口口口口 |①---|
口口口口 |----|
口①①口 |----|
口口口口 |----|
41
口口口口 |①---|
口口口口 |----|
口②②口 |②---|
口①①口 |----|
42
口口口口 |①---|
④③②① |②---|
口口口口 |③---|
口口口口 |④---|
43
口口口口 |①---|
口口口④ |②---|
口①口③ |③---|
口口②口 |④---|
44
口①①口 |①---|
口②②口 |②---|
口③③口 |③---|
口④④口 |④---|
45
④口口④ |①---|
③口口③ |②---|
②口口② |③---|
①口口① |④---|
46
口①①口 |①---|
口②②口 |②---|
口③③口 |③---|
口④④口 |④---|
47
口口口口 |①---|
②④口口 |②---|
①③口口 |③---|
口口口口 |④---|
48
口口口口 |①---|
口口②④ |②---|
口口①③ |③---|
口口口口 |④---|
49
口口口口 |①---|
②④口口 |②---|
①③口口 |③---|
口口口口 |④---|
50
口口口口 |①---|
口口②④ |②---|
口口①③ |③---|
口口口口 |④---|
51
①②④③ |①---|
口口口口 |②---|
口口口口 |③---|
口口口口 |④---|
52
口口口口 |①---|
①②④③ |②---|
口口口口 |③---|
口口口口 |④---|
53
口④④口 |①---|
口③③口 |②---|
口②②口 |③---|
口①①口 |④---|
54
口口口口 |①---|
②口口① |②---|
口③③口 |③---|
口口口口 |----|
55
①②④③ |①---|
口口口口 |②---|
口口口口 |③---|
口口口口 |④---|
56
口口口口 |①---|
①②④③ |②---|
口口口口 |③---|
口口口口 |④---|
57
口④④口 |①---|
口③③口 |②---|
口②②口 |③---|
口①①口 |④---|
58
口口口口 |①---|
②口口① |②---|
口③③口 |③---|
口口口口 |----|
59
①②④③ |①---|
口口口口 |②---|
口口口口 |③---|
口口口口 |④---|
60
口口口口 |①---|
①②④③ |②---|
口口口口 |③---|
口口口口 |④---|

不確定度: 0

最終更新:2014年12月12日 00:55