らいらら
KRD8

ADVANCED

Level: 7
BPM: 155
Notes: 470

1
口口口口 |----|
口口口口 |----|
口口口口 |----|
口口口口 |----|
2
口口口口 |①---|
口口③口 |②---|
口②口口 |③---|
①口口口 |----|
3
口口口口 |①---|
口①口口 |----|
口口③口 |②---|
口口口② |③---|
4
口①口口 |①---|
口口②口 |--②-|
口③口口 |----|
口口口口 |③---|
5
口②①口 |①---|
口口口口 |----|
口口口口 |②---|
口口口口 |----|
6
口口口口 |①---|
①口口① |----|
②口口② |②---|
口口口口 |----|
7
口口口口 |①-②-|
口②①口 |③-④-|
口④③口
口口口口

口口⑤⑤
⑥⑦口口
口口口口 |⑤---|
口口口口 |⑥-⑦-|
8
⑧口口口 |①-②-|
口口口⑦ |③-④-|
⑥口②① |⑤-⑥-|
③④口⑤ |⑦-⑧-|
9
口口口口 |①-②-|
口②①口 |③-④-|
口④③口
口口口口

口口⑤⑤
⑥⑦口口
口口口口 |⑤---|
口口口口 |⑥-⑦-|
10
口⑥⑤口 |①-②-|
口⑧⑦口 |③-④-|
口口②① |⑤-⑥-|
③④口口 |⑦-⑧-|
11
④⑤⑥① |①-②-|
③口⑦② |③-④-|
②⑦口③ |⑤-⑥-|
①⑥⑤④ |⑦---|
12
④⑤⑥① |①-②-|
③口⑦② |③-④-|
②⑦口③ |⑤-⑥-|
①⑥⑤④ |⑦---|
13
口③口① |①---|
口③口① |②---|
④口②口 |③---|
④口②口 |④---|
14
口口口口 |①---|
口口④口 |②-③-|
口③②口 |④---|
口①①口 |----|
15
④⑤⑥① |①-②-|
③口⑦② |③-④-|
②⑦口③ |⑤-⑥-|
①⑥⑤④ |⑦---|
16
④⑤⑥① |①-②-|
③口⑦② |③-④-|
②⑦口③ |⑤-⑥-|
①⑥⑤④ |⑦---|
17
口③口① |①---|
口③口① |②---|
口口②口 |③---|
口口②口 |----|
18
口口口口 |①---|
口口口口 |----|
口①①口 |----|
口口口口 |----|
19
④⑤⑥① |①-②-|
③口⑦② |③-④-|
②⑦口③ |⑤-⑥-|
①⑥⑤④ |⑦---|
20
④⑤⑥① |①-②-|
③口⑦② |③-④-|
②⑦口③ |⑤-⑥-|
①⑥⑤④ |⑦---|
21
口③口① |①---|
口③口① |②---|
④口②口 |③---|
④口②口 |④---|
22
口口口口 |①---|
口口④口 |②-③-|
口③②口 |④---|
口①①口 |----|
23
④⑤⑥① |①-②-|
③口⑦② |③-④-|
②⑦口③ |⑤-⑥-|
①⑥⑤④ |⑦---|
24
④⑤⑥① |①-②-|
③口⑦② |③-④-|
②⑦口③ |⑤-⑥-|
①⑥⑤④ |⑦---|
25
口③口① |①---|
口③口① |②---|
④口②口 |③---|
④口②口 |④---|
26
口⑤⑤口 |①-②-|
④口②口 |③-④-|
口③口① |⑤---|
口口⑦⑥ |⑥-⑦-|
27
②③口口 |①---|
口口④口 |②-③-|
口①口口 |④---|
口⑤⑤口 |⑤---|
28
口口口口 |①---|
口③②口 |②-③-|
口①①口
口口口口

口口④口
口口口口
口⑤⑤口 |④---|
口口口口 |⑤---|
29
口口口口 |①---|
口④④口 |--②-|
③口口② |③---|
口①①口 |④---|
30
口①①② |①---|
③口口口 |----|
口口口④ |②-③-|
⑤口口口 |④-⑤-|
31
⑤⑤口口 |①---|
口④③② |②-③-|
口①①口 |④---|
口口口口 |⑤---|
32
口口①① |①---|
口口口口 |----|
口②②口 |②---|
口口口口 |----|
33
①口口口 |①-②-|
口⑥⑥② |③-④-|
③⑤⑤口 |⑤---|
口口口④ |⑥---|
34
①口口① |①---|
②口口② |②---|
③口口③ |③---|
口口口口 |----|
35
口口①口 |①-②-|
口②口口 |③-④-|
⑥口③⑥ |----|
⑤④口⑤ |⑤-⑥-|
36
口③②口 |①---|
①口口① |----|
口口口口 |②---|
口②③口 |③---|
37
口口口② |①---|
①口口① |--②-|
①口②①
口口口口

③口④口
口口口④
口③口口 |③---|
口口口口 |--④-|
38
③①口③ |①---|
①口口口 |②---|
口④口口 |③---|
②口口② |--④-|
39
口④③口 |①-②-|
⑤口口② |③-④-|
⑥口口① |⑤-⑥-|
口⑦⑧口 |⑦-⑧-|
40
口口口口 |①---|
口①①口 |----|
口口口口
口口口口

口口②②
口口③③
口口口口 |----|
口口口口 |②-③-|
41
口口口口 |①---|
④④口口 |②-③-|
③③①① |④---|
②②口口 |----|
42
④②③① |①---|
口④口口 |--②-|
②口口③ |③---|
①口口口 |--④-|
43
口口口① |①---|
口口①口 |②---|
口口口口
口②②口

口③③口
口口④口
口口口口 |③---|
口口口口 |--④-|
44
⑥⑥⑤⑤ |①-②-|
口口口口 |③-④-|
口口口口 |⑤---|
①②③④ |⑥---|
45
口口口口 |①---|
①口口① |----|
①口口① |----|
口口口口 |----|
46
①①①① |----|
②②②② |----|
口口口口 |①---|
口口口口 |②---|
47
口口口口 |①---|
口口口口 |----|
①①①①
口口口口

②口口口
④口口口
③口口口 |--②-|
口口口口 |③-④-|
48
口④口① |--①-|
口口⑤③ |②-③-|
口⑥口② |④-⑤-|
口口⑦口 |⑥-⑦-|
49
①口口④ |--①-|
③口口⑥ |②-③-|
②口口⑤ |--④-|
口口口口 |⑤-⑥-|
50
①口④口 |--①-|
③⑤口口 |②-③-|
②口⑥口 |④-⑤-|
口⑦口口 |⑥-⑦-|
51
④口口① |①-②-|
③口口② |③-④-|
②口口③
①口口④

口⑤⑥⑧
口口⑦口
口⑦口口 |⑤-⑥-|
⑧⑥⑤口 |⑦-⑧-|
52
③④⑤口 |--①-|
②口⑥① |②-③-|
①⑥口② |④-⑤-|
口⑤④③ |⑥---|
53
口③口① |①---|
口③口① |②---|
④口②口 |③---|
④口②口 |④---|
54
口口口口 |①---|
口口④口 |②-③-|
口③②口 |④---|
口①①口 |----|
55
④口口① |①-②-|
③口口② |③-④-|
②口口③
①口口④

口⑤⑥⑧
口口⑦口
口⑦口口 |⑤-⑥-|
⑧⑥⑤口 |⑦-⑧-|
56
③④⑤口 |--①-|
②口⑥① |②-③-|
①⑥口② |④-⑤-|
口⑤④③ |⑥---|
57
口③口① |①---|
口③口① |②---|
④口②口 |③---|
④口②口 |④---|
58
①口口① |①---|
口③②口 |②-③-|
口口④口 |④---|
口口口口 |----|
59
⑧口口① |①-②-|
⑥口口③ |③-④-|
④口口⑤ |⑤-⑥-|
②口口⑦ |⑦-⑧-|
60
口口①口 |--①-|
口⑥③口 |②-③-|
口④⑤口 |④-⑤-|
口②口口 |⑥---|

不確定度: 0

最終更新:2014年12月12日 00:54