7 Colors
kors k feat.吉河順央

BASIC

Level: 3
BPM: 156
Notes: 199

1
口口口口 |----|
口口口口 |----|
口口口口 |----|
口口口口 |----|
2
口口口口 |①---|
口口口口 |----|
口口口口 |②---|
①口口② |----|
3
口口口口 |①---|
口口口口 |----|
口①①口 |----|
口口口口 |----|
4
口口口口 |①---|
口口口口 |----|
①口口① |----|
口口口口 |----|
5
口口口口 |①---|
口①①口 |----|
口口口口 |----|
口口口口 |----|
6
口口口口 |①---|
①口口① |----|
口口口口 |----|
口口口口 |----|
7
口口口口 |①---|
口①口口 |----|
口口口口 |----|
口口口口 |----|
8
口口口口 |①---|
口口①口 |----|
口口口口 |----|
口口口口 |----|
9
口①①口 |①---|
口口口口 |----|
口口口口 |----|
口口口口 |----|
10
①口口① |①---|
口口口口 |----|
口口口口 |----|
口口口口 |----|
11
口①②口 |①---|
口③④口 |②---|
口口口口 |③---|
口口口口 |④---|
12
口口口口 |①---|
口口口口 |②---|
口①②口 |③---|
口③④口 |④---|
13
口口口口 |①---|
口口口口 |②---|
③口口④ |③---|
①口口② |④---|
14
口口口口 |①---|
口②②口 |----|
口①①口 |②---|
口口口口 |----|
15
口①②口 |①---|
口③④口 |②---|
口口口口 |③---|
口口口口 |④---|
16
口口口口 |①---|
口口口口 |②---|
口①②口 |③---|
口③④口 |④---|
17
口口口口 |①---|
口口口口 |②---|
③口口④ |③---|
①口口② |④---|
18
口口口口 |①---|
口②②口 |----|
口①①口 |②---|
口口口口 |----|
19
①口口口 |①---|
②口口口 |②---|
③口口口 |③---|
口口口口 |----|
20
口口口口 |①---|
口①口口 |②---|
口②口口 |③---|
口③口口 |----|
21
口口①口 |①---|
口口②口 |②---|
口口③口 |③---|
口口④口 |④---|
22
口口口口 |①---|
口口口③ |②---|
口口口② |③---|
口口口① |----|
23
口口①口 |①---|
口口②口 |②---|
口口③口 |③---|
口口口口 |----|
24
口口口口 |①---|
口①口口 |②---|
口②口口 |③---|
口③口口 |----|
25
④口口口 |①---|
③口口口 |②---|
②口口口 |③---|
①口口口 |④---|
26
口①口口 |①---|
口③②口 |----|
口口口口 |②---|
口口口口 |③---|
27
口口口口 |①---|
口口口口 |----|
口口①口 |----|
口口口口 |----|
28
口口口口 |①---|
口口口口 |----|
口③口口 |②---|
口②①口 |③---|
29
口口口口 |①---|
口①②口 |----|
口口口口 |②---|
口口口口 |----|
30
口口口口 |①---|
口口口口 |----|
口口①口 |②---|
口口②口 |----|
31
口口口口 |①---|
口口口③ |②---|
口口口② |③---|
口口口① |----|
32
口口①口 |①---|
口口②口 |②---|
口口③口 |③---|
口口口口 |----|
33
口④口口 |①---|
口③口口 |②---|
口②口口 |③---|
口①口口 |④---|
34
①口口口 |①---|
口口口口 |----|
口口口口 |----|
口口口口 |----|
35
口口口口 |①---|
口①①口 |----|
口口口口
口口口口

口口口口
口②口口
口口口口 |----|
口口口口 |②---|
36
④③②① |①---|
口口口口 |②---|
口口口口 |③---|
口口口口 |④---|
37
口口口口 |①---|
口①口口 |②---|
口口②口 |③---|
口口口③ |----|
38
口口口口 |①---|
口口口口 |----|
口口②口 |②---|
①口口口 |----|
39
口口口口 |①---|
口①④口 |②---|
口③②口 |③---|
口口口口 |④---|
40
①②③④ |①---|
口口口口 |②---|
口口口口 |③---|
口口口口 |④---|
41
口口口口 |①---|
口口①口 |②---|
口②口口 |③---|
③口口口 |----|
42
口口口口 |①---|
口口口口 |----|
口口口口 |----|
口口①口 |----|
43
口口口口 |①---|
②口③② |----|
口①①口 |②---|
口口口口 |③---|
44
①②③④ |①---|
口口口口 |②---|
口口口口 |③---|
口口口口 |④---|
45
口口口口 |①---|
口口①口 |②---|
口②口口 |③---|
③口口口 |----|
46
口口口口 |①---|
口口口口 |----|
口②口口 |②---|
口口①口 |----|
47
口口口口 |①---|
口④①口 |②---|
口②③口 |③---|
口口口口 |④---|
48
④③②① |①---|
口口口口 |②---|
口口口口 |③---|
口口口口 |④---|
49
口口口口 |①---|
口①口口 |②---|
口口②口 |③---|
口口口③ |----|
50
口口口口 |①---|
口口口口 |----|
口口口口 |----|
口①口口 |----|
51
口口口口 |①---|
口②②口 |----|
口①①口 |②---|
口口口口 |----|
52
①口口① |①---|
口口口口 |----|
口口口口 |----|
口口口口 |----|
53
口口口口 |----|
口口口口 |----|
口口口口 |----|
口口口口 |----|
54
口①②口 |①---|
口③④口 |②---|
口口口口 |③---|
口口口口 |④---|
55
口口口口 |①---|
口口口口 |②---|
口①②口 |③---|
口③④口 |④---|
56
口口口口 |①---|
口口口口 |②---|
③口口④ |③---|
①口口② |④---|
57
口口口口 |①---|
口②②口 |----|
口①①口 |②---|
口口口口 |----|
58
口①②口 |①---|
口③④口 |②---|
口口口口 |③---|
口口口口 |④---|
59
口口口口 |①---|
口口口口 |②---|
口①②口 |③---|
口③④口 |④---|
60
口口口口 |①---|
口口口口 |②---|
③口口④ |③---|
①口口② |④---|
61
口口口口 |①---|
口②②口 |----|
口①①口 |②---|
口口口口 |----|
62
①口口① |①---|
②口口② |②---|
③口口③ |③---|
④口口④ |④---|
63
④④④④ |①---|
口③③口 |②---|
口②②口 |③---|
口①①口 |④---|

不確定度: 0

最終更新:2014年12月12日 00:16