7 Colors
kors k feat.吉河順央

ADVANCED

Level: 7
BPM: 156
Notes: 399

1
口口口口 |----|
口口口口 |----|
口口口口 |----|
口口口口 |----|
2
口口口口 |①---|
口③③口 |②---|
口④⑤口 |③---|
①口口② |④-⑤-|
3
①口口口 |①---|
口口口口 |----|
口口口口 |----|
口口口口 |----|
4
⑤⑥⑦⑧ |①-②-|
口④③② |③-④-|
口①口口 |⑤-⑥-|
口口口口 |⑦-⑧-|
5
口口口口 |①---|
口口口口 |----|
①口口口 |----|
口口口口 |----|
6
口口口口 |①---|
口口口① |②---|
口②口口 |③---|
口④口③ |④---|
7
口口口口 |①---|
口①①口 |----|
口口口口 |----|
口口口口 |----|
8
口口口口 |①---|
①口③① |----|
口②口口 |----|
口口口口 |②-③-|
9
口①口口 |①---|
口口口口 |----|
口口口口 |----|
口口口口 |----|
10
①④口① |①--②|
②口口② |--③-|
③口口③ |----|
口口口口 |④---|
11
口口口口 |①-②-|
口口口口 |③-④-|
⑧②①⑦ |⑤-⑥-|
⑥④③⑤ |⑦-⑧-|
12
⑧④③⑦ |①-②-|
⑥②①⑤ |③-④-|
口口口口 |⑤-⑥-|
口口口口 |⑦-⑧-|
13
口口口口 |①-②-|
⑥②①⑤ |③-④-|
⑧④③⑦ |⑤-⑥-|
口口口口 |⑦-⑧-|
14
口口①口 |①---|
口②口口 |②---|
口口口口
口口口口

口④④口
口口口口
口口口口 |③---|
口口③口 |④---|
15
口口口口 |①-②-|
口口口口 |③-④-|
⑧②①⑦ |⑤-⑥-|
⑥④③⑤ |⑦-⑧-|
16
⑧④③⑦ |①-②-|
⑥②①⑤ |③-④-|
口口口口 |⑤-⑥-|
口口口口 |⑦-⑧-|
17
口口口口 |①-②-|
⑥②①⑤ |③-④-|
⑧④③⑦ |⑤-⑥-|
口口口口 |⑦-⑧-|
18
②②①① |①---|
口③③口 |--②-|
口口口口 |----|
④口口口 |③-④-|
19
口④⑤③ |①-②-|
②口口口 |③-④⑤|
口口口① |----|
口口口⑥ |--⑥-|
20
③⑤④口 |①-②-|
口口口② |③-④⑤|
①口口口 |----|
口⑥口口 |--⑥-|
21
④⑧③⑤ |①-②-|
口②⑥口 |③-④⑤|
口⑦①口 |--⑥-|
口口口口 |⑦-⑧-|
22
口口口口 |--①-|
口口口口 |②-③-|
②口口① |④---|
口④③口 |----|
23
口⑤④口 |①-②-|
③口口口 |③-④⑤|
口口口② |----|
①口口⑥ |--⑥-|
24
③⑤④口 |①-②-|
口口口② |③-④⑤|
①口口口 |----|
⑥口口口 |--⑥-|
25
⑥口口口 |①-②-|
口②③① |③-④-|
口④⑤口 |⑤---|
口口口⑦ |⑥-⑦-|
26
口口④口 |----|
口③口口 |----|
口口②口 |①-②-|
口①口口 |③-④-|
27
①口口口 |①---|
口④④口 |②-③-|
口②口③ |--④-|
口⑤⑤口 |--⑤-|
28
口口②口 |----|
口③口口 |--①-|
口口④口 |②-③-|
①⑤口口 |④-⑤-|
29
口⑤⑤口 |①---|
②口③口 |②-③-|
口④④口 |--④-|
口口口① |--⑤-|
30
口口口④ |--①-|
口③口口 |②-③-|
口口口② |----|
口①口口 |--④-|
31
口口口口 |①-②-|
①口口口 |③-④⑤|
口口口②
③⑤④口

口口口口
口口口口
口口口⑥ |----|
口口口口 |--⑥-|
32
⑧①口口 |①-②-|
口⑦②口 |③-④⑤|
口③⑥口 |--⑥-|
口⑤④口 |⑦-⑧-|
33
口⑤⑤① |①---|
口口③③ |②-③-|
②②口口 |--④-|
口④④口 |--⑤-|
34
口口口口 |----|
口口口口 |----|
口口口口 |----|
口口口口 |----|
35
口口口口 |①---|
①①①① |----|
口口③口 |----|
②口口口 |②-③-|
36
口③④口 |①---|
⑤①口口 |②-③④|
口口口⑥ |--⑤-|
⑦口口② |⑥-⑦-|
37
口④⑤口 |①-②-|
口口③口 |③-④⑤|
口②口口
口口①口

口口口口
口口口口
口口⑦⑦ |----|
口口⑥⑥ |⑥-⑦-|
38
口④③口 |①---|
⑤口①① |②-③④|
口⑦口⑥ |--⑤-|
②②口口 |⑥-⑦-|
39
口④⑤口 |①-②-|
口口③口 |③-④⑤|
②口口口
口口①口

口口口口
口口口口
口⑦口口 |----|
口口⑥口 |⑥-⑦-|
40
口④③口 |①---|
⑤口①口 |②-③④|
口口口⑥ |--⑤-|
②⑦口口 |⑥-⑦-|
41
口口⑤⑤ |①-②-|
口④①口 |③-④-|
口②③口 |⑤---|
⑥⑥口口 |⑥---|
42
口口口口 |①---|
③口口② |----|
②①①③ |----|
口口口口 |②-③-|
43
③口口③ |①--②|
口口口口 |--③-|
口②②口
口①①口

口口口口
口口口口
口口⑤口 |----|
④口口口 |④-⑤-|
44
口口③口 |①---|
④①口口 |②--③|
口口口⑤ |--④-|
⑥口口② |⑤-⑥-|
45
口④⑤口 |①-②-|
口口③口 |③-④⑤|
口②口口
口口①口

口口口口
口口口口
口口⑦⑦ |----|
口口⑥⑥ |⑥-⑦-|
46
口④③口 |①---|
⑤口①① |②-③④|
口⑦口⑥ |--⑤-|
②②口口 |⑥-⑦-|
47
口④⑤口 |①-②-|
口口③口 |③-④⑤|
②口口口
口口①口

口口口口
口口口口
口⑦口口 |----|
口口⑥口 |⑥-⑦-|
48
口④③口 |①---|
⑤口①口 |②-③④|
口口口⑥ |--⑤-|
②⑦口口 |⑥-⑦-|
49
口口⑤⑤ |①-②-|
口④①口 |③-④-|
口②③口 |⑤---|
⑥⑥口口 |⑥---|
50
口口口口 |①---|
③口口② |----|
③①①② |----|
口口口口 |②-③-|
51
口⑤⑤口 |①--②|
口③③口 |--③-|
口②②口 |--④-|
④①①④ |--⑤-|
52
②口口① |①---|
④口口③ |②---|
口口口口 |③---|
口口口口 |④---|
53
口⑦⑦口 |①-②-|
⑥口口⑤ |③-④-|
口②①口 |⑤-⑥-|
口④③口 |⑦---|
54
口口口口 |①-②-|
口口口口 |③-④-|
⑧②①⑦ |⑤-⑥-|
⑥④③⑤ |⑦-⑧-|
55
⑧④③⑦ |①-②-|
⑥②①⑤ |③-④-|
口口口口 |⑤-⑥-|
口口口口 |⑦-⑧-|
56
口口口口 |①-②-|
⑥②①⑤ |③-④-|
⑧④③⑦ |⑤-⑥-|
口口口口 |⑦-⑧-|
57
口口①口 |①---|
口②口口 |②---|
口口口口
口口口口

口④④口
口口口口
口口口口 |③---|
口口③口 |④---|
58
口口口口 |①-②-|
口口口口 |③-④-|
⑧②①⑦ |⑤-⑥-|
⑥④③⑤ |⑦-⑧-|
59
⑧④③⑦ |①-②-|
⑥②①⑤ |③-④-|
口口口口 |⑤-⑥-|
口口口口 |⑦-⑧-|
60
口口口口 |①-②-|
⑥②①⑤ |③-④-|
⑧④③⑦ |⑤-⑥-|
口口口口 |⑦-⑧-|
61
②②①① |①---|
口③③口 |--②-|
口口口口 |----|
口口口口 |③---|
62
口口口口 |①---|
口口口口 |②---|
口口口口 |③---|
①②③④ |④---|
63
⑦⑤⑥⑦ |①-②-|
口③④口 |③-④-|
口①②口 |⑤-⑥-|
口口口口 |⑦---|

不確定度: 0

最終更新:2014年12月12日 00:16