10,000,000,000
TAG feat. 96

BASIC

Level: 3
BPM: 205
Notes: 190

1
口口口口 |----|
口口口口 |----|
口口口口 |----|
口口口口 |----|
2
口口口口 |①---|
口口口口 |----|
口②口口 |②---|
①口口口 |----|
3
口②②口 |①---|
①口口口 |----|
口口口口 |②---|
口口口口 |----|
4
口口口口 |①---|
口口口口 |----|
口口②口 |②---|
口口口① |----|
5
口②②口 |①---|
口口口① |----|
口口口口 |②---|
口口口口 |----|
6
口口口口 |①---|
口口口口 |----|
②口口口 |②---|
口①口口 |----|
7
②口口② |①---|
口①口口 |----|
口口口口 |②---|
口口口口 |----|
8
口口口口 |①---|
口口口口 |----|
口口口② |②---|
口口①口 |----|
9
②口口② |①---|
口口①口 |----|
口口口口 |②---|
口口口口 |----|
10
口口口口 |①---|
口口口口 |----|
口②口口 |②---|
①口口口 |----|
11
口②②口 |①---|
①口口口 |----|
口口口口 |②---|
口口口口 |----|
12
口口口口 |①---|
口口口口 |----|
口口②口 |②---|
口口口① |----|
13
口②②口 |①---|
口口口① |----|
口口口口 |②---|
口口口口 |----|
14
口口口口 |①---|
口口口口 |----|
②口口口 |②---|
口①口口 |----|
15
②口口② |①---|
口①口口 |----|
口口口口 |②---|
口口口口 |----|
16
口口口口 |①---|
口口口口 |----|
口口口② |②---|
口口①口 |----|
17
②口口② |①---|
口口①口 |----|
口口口口 |②---|
口口口口 |----|
18
口口口口 |①---|
口口口口 |----|
口①①口 |----|
口口口口 |----|
19
口口口口 |①---|
口口口口 |----|
口口②口 |②---|
口①口口 |----|
20
口口口口 |①---|
①口口口 |----|
口②口口 |②---|
口口口口 |----|
21
口口口口 |①---|
口口口口 |----|
口口口口 |----|
口口①口 |----|
22
口口口口 |①---|
口口口口 |----|
口①①口 |----|
口口口口 |----|
23
口口口口 |①---|
①口口① |----|
口口口口 |----|
口口口口 |----|
24
口①①口 |①---|
口口口口 |----|
口口口口 |----|
口口口口 |----|
25
口口口口 |----|
口口口口 |----|
口口口口 |----|
口口口口 |----|
26
口口口口 |----|
口口口口 |----|
口口口口 |----|
口口口口 |----|
27
口口口口 |①---|
口口口口 |----|
口②口口 |②---|
口口①口 |----|
28
口口口口 |①---|
口口口① |----|
口口②口 |②---|
口口口口 |----|
29
口口口口 |①---|
口口口口 |----|
口口口口 |----|
口①口口 |----|
30
口口口口 |①---|
口口口口 |----|
口①①口 |----|
口口口口 |----|
31
口口口口 |①---|
①口口① |----|
口口口口 |----|
口口口口 |----|
32
口①①口 |①---|
口口口口 |----|
口口口口 |----|
口口口口 |----|
33
口口口口 |----|
口①口口 |----|
口①口口 |①---|
口口口口 |----|
34
口口口口 |①---|
口口①口 |----|
口口①口 |----|
口口口口 |----|
35
口口口口 |①---|
口口口口 |----|
②口口口 |②---|
①口口口 |----|
36
②口口口 |①---|
①口口口 |----|
口口口口 |②---|
口口口口 |----|
37
口口口① |----|
口口口口 |----|
口口口口 |①---|
口口口口 |----|
38
口口口口 |①---|
口口口① |----|
口口口口 |----|
口口口口 |----|
39
口口口口 |----|
口口口口 |----|
口①口口 |①---|
口口口口 |----|
40
口口口口 |①---|
口②口口 |----|
口口①口 |②---|
口口口口 |----|
41
口口口口 |①---|
口口①口 |----|
口②口口 |②---|
口口口口 |----|
42
口口口口 |①---|
口口口口 |----|
口口①口 |②---|
②口口口 |----|
43
口口口口 |①---|
②口口口 |----|
①口口口 |②---|
口口口口 |----|
44
①口口口 |①---|
口口口口 |----|
口口②口 |②---|
口口口口 |----|
45
②口口② |①---|
口①①口 |----|
口口口口 |②---|
口口口口 |----|
46
口口口口 |①---|
口口口口 |②---|
口口口口 |③---|
①②③④ |④---|
47
口口口口 |①---|
口①②口 |----|
口口口口 |②---|
口口口口 |----|
48
口口口口 |①---|
口口口口 |②---|
口口口口 |③---|
④③②① |④---|
49
口口口口 |①---|
口②①口 |----|
口口口口 |②---|
口口口口 |----|
50
口口口口 |①---|
口口口口 |----|
口①①口 |----|
口口口口 |----|
51
口口口口 |①---|
口①①口 |----|
口口口口 |----|
口口口口 |----|
52
①口口① |①---|
口口口口 |----|
口口口口 |----|
口口口口 |----|
53
口口口口 |①---|
口口口口 |----|
①口口① |----|
口口口口 |----|
54
口口口口 |①---|
口口口口 |②---|
口口口口 |③---|
①②③④ |④---|
55
口口口口 |①---|
口①②口 |----|
口口口口 |②---|
口口口口 |----|
56
口口口口 |①---|
口口口口 |②---|
口口口口 |③---|
④③②① |④---|
57
口口口口 |①---|
口②①口 |----|
口口口口 |②---|
口口口口 |----|
58
口口口口 |①---|
口口口口 |----|
口①①口 |----|
口口口口 |----|
59
口口口口 |①---|
①口口① |----|
口口口口 |----|
口口口口 |----|
60
口①①口 |①---|
口口口口 |----|
口口口口 |----|
口口口口 |----|
61
①口口① |①---|
口口口口 |----|
口口口口 |----|
口口口口 |----|
62
口口口口 |①---|
口口口口 |----|
口①①口 |----|
口口口口 |----|
63
口口口口 |①---|
口①①口 |----|
口口口口 |----|
口口口口 |----|
64
①口口① |①---|
口口口口 |----|
口口口口 |----|
口口口口 |----|
65
口口口口 |----|
口口口口 |----|
口口口口 |----|
口口口口 |----|
66
口口口口 |①---|
口口口口 |----|
口口②口 |②---|
口口口① |----|
67
口②②口 |①---|
口口口① |----|
口口口口 |②---|
口口口口 |----|
68
口口口口 |①---|
口口口口 |----|
②口口口 |②---|
口①口口 |----|
69
②口口② |①---|
口①口口 |----|
口口口口 |②---|
口口口口 |----|
70
口口口口 |①---|
口口口口 |----|
口口口② |②---|
口口①口 |----|
71
②口口② |①---|
口口①口 |----|
口口口口 |②---|
口口口口 |----|
72
口口口口 |①---|
口口口口 |②---|
口③④口 |③---|
①口口② |④---|
73
口③④口 |①---|
①口口② |②---|
口口口口 |③---|
口口口口 |④---|
74
口口口口 |①---|
口口口口 |②---|
③口口④ |③---|
口①②口 |④---|
75
③口口④ |①---|
口①②口 |②---|
口口口口 |③---|
口口口口 |④---|
76
口口口口 |①---|
口口口口 |②---|
口③④口 |③---|
①口口② |④---|
77
口③④口 |①---|
①口口② |②---|
口口口口 |③---|
口口口口 |④---|
78
口口口口 |①---|
口口口口 |②---|
③口口④ |③---|
口①②口 |④---|
79
③口口④ |①---|
口①②口 |②---|
口口口口 |③---|
口口口口 |④---|
80
③③③③ |①---|
口②②口 |--②-|
口①①口 |----|
口口口口 |③---|

不確定度: 0

最終更新:2014年12月12日 00:14