yellow head joe
S-C-U

EXTREME

Level: 10
BPM: 187
Notes: 765

1
口口口口 |----|
口口口口 |----|
口口口口 |----|
口口口口 |----|
2
③①②口 |----|
口口③口 |----|
口③口口 |①-②-|
口②①③ |--③-|
3
口口口④ |--①-|
②口口口 |②-③-|
口口口③ |④---|
①口口⑤ |--⑤-|
4
③⑤④⑥ |①-②-|
口⑥口① |③---|
②口⑥口 |④-⑤-|
⑥④⑤口 |--⑥-|
5
①口口⑦ |--①②|
口口口③ |③-④-|
⑥②⑧口 |⑤-⑥-|
口④口⑤ |--⑦⑧|
6
⑦⑤⑥口 |①-②-|
①口⑦④ |③-④-|
口⑦口② |⑤-⑥-|
③⑥⑤⑦ |--⑦-|
7
口口口④ |--①-|
②口口口 |②-③-|
口口口③ |④---|
①口口⑤ |--⑤-|
8
③⑤④⑥ |①-②-|
口⑥口① |③---|
②口⑥口 |④-⑤-|
⑥④⑤口 |--⑥-|
9
①口口⑦ |--①②|
口口口③ |③-④-|
⑥②⑧口 |⑤-⑥-|
口④口⑤ |--⑦⑧|
10
口⑤⑥口 |①-②-|
①口口④ |③-④-|
口口口② |⑤-⑥-|
③⑥⑤口 |----|
11
口口口② |①②-③|
④口口⑥ |④-⑤⑥|
口口口①
③口口⑤

⑦口⑧口
口口口口
口⑦口⑧ |--⑦-|
口口口口 |-⑧--|
12
口①口口 |①--②|
口②④③ |--③-|
口⑤①口 |-④--|
②④③⑥ |⑤-⑥-|
13
⑥口口④ |①②-③|
②口口口 |④-⑤⑥|
⑤口口③
①口口口

口口口口
口⑧口⑦
口口口口 |--⑦-|
⑧口⑦口 |-⑧--|
14
③④②口 |①--②|
口口①⑤ |--③-|
⑥③④② |-④--|
口①口口 |⑤-⑥-|
15
口⑦⑥口 |①②-③|
⑦④②口 |④-⑤⑥|
口⑧⑤口 |--⑦-|
⑧③①口 |-⑧--|
16
③口③① |①--②|
口口①⑤ |--③-|
④⑥⑥② |-④--|
⑤口②④ |⑤-⑥-|
17
⑨口口② |①②-③|
⑦④⑥⑦ |④-⑤⑥|
⑧口⑩① |--⑦-|
口③⑤口 |⑧⑨-⑩|
18
口口①口 |①--②|
口②③口 |--③-|
口口口②
③口口口

口⑥⑥口
口口口④
④⑤⑤口 |-④--|
口口口口 |⑤-⑥-|
19
口口口② |①②-③|
④口口⑥ |④-⑤⑥|
口口口①
③口口⑤

⑦口⑧口
口口口口
口⑦口⑧ |--⑦-|
口口口口 |-⑧--|
20
口①口口 |①--②|
口②④③ |--③-|
口⑤①口 |-④--|
②④③⑥ |⑤-⑥-|
21
⑥口口④ |①②-③|
②口口口 |④-⑤⑥|
⑤口口③
①口口口

口口口口
口⑧口⑦
口口口口 |--⑦-|
⑧口⑦口 |-⑧--|
22
③④②口 |①--②|
口口①⑤ |--③-|
⑥③④② |-④--|
口①口口 |⑤-⑥-|
23
口⑦⑥口 |①②-③|
⑦④②口 |④-⑤⑥|
口⑧⑤口 |--⑦-|
⑧③①口 |-⑧--|
24
③口③① |①--②|
口口①⑤ |--③-|
④⑥⑥② |-④--|
⑤口②④ |⑤-⑥-|
25
④①②③ |-①--|
①②③④ |②--③|
口口⑤口 |--④-|
口口口⑤ |-⑤--|
26
⑥④④⑥ |①--②|
口⑤⑤口 |--③-|
②①口③ |-④--|
③②①口 |⑤-⑥-|
27
口口口口 |①-②-|
口口口③ |③-④-|
口口①④
口口②口

口口⑤⑥
口口口口
口口⑦口 |⑤---|
口口口口 |⑥-⑦-|
28
口⑥④口 |--①-|
⑦口②口 |②-③-|
口⑤口③ |④-⑤-|
口口①口 |⑥-⑦-|
29
①⑥口口 |①-②-|
⑦②口口 |③-④-|
③口⑤口 |--⑤-|
口④口口 |⑥-⑦-|
30
④口口口 |①-②-|
口⑤③口 |--③-|
⑥①口口 |④-⑤-|
②⑦口口 |⑥-⑦-|
31
口口口口 |①-②-|
口口口③ |③-④-|
口口①④
口口②口

口口⑤⑥
口口口口
口口⑦口 |⑤---|
口口口口 |⑥-⑦-|
32
口⑥④口 |--①-|
⑦口②口 |②-③-|
口⑤口③ |④-⑤-|
口口①口 |⑥-⑦-|
33
①口口④ |①--②|
口①④口 |--③-|
②⑥⑥⑤ |④--⑤|
③②⑤口 |--⑥-|
34
①④②⑤ |①--②|
④③⑤① |--③-|
②⑥口口 |④-⑤-|
⑥口口③ |⑥---|
35
口口口口 |①-②-|
口口口③ |③-④-|
口口①④
口口②口

口口⑤⑥
口口口口
口口⑦口 |⑤---|
口口口口 |⑥-⑦-|
36
口口④口 |--①-|
口⑥②口 |②-③-|
⑦口口③ |④-⑤-|
口⑤①口 |⑥-⑦-|
37
⑥①口口 |①-②-|
②⑦口口 |③-④-|
口③⑤口 |--⑤-|
④口口口 |⑥-⑦-|
38
口④口口 |①-②-|
⑤口③口 |--③-|
①⑥口口 |④-⑤-|
⑦②口口 |⑥-⑦-|
39
口⑥⑤口 |①-②-|
口口⑦③ |③-④-|
口口①④ |⑤---|
口口②口 |⑥-⑦-|
40
④口口③ |①②③④|
⑧口口口 |⑤⑥⑦⑧|
②口口⑦
口⑥⑤①

口⑬口口
口⑮⑫⑩
口⑪⑯口 |⑨⑩⑪⑫|
⑨口口⑭ |⑬⑭⑮⑯|
41
①④③① |①-②-|
⑤口口⑤ |--③-|
口口口口 |--④-|
③②②④ |--⑤-|
42
②口口② |--①-|
口③口⑥ |②---|
口口⑤口 |--③-|
③①①④ |④⑤⑥-|
43
口①口口 |①--②|
①口口口 |--③-|
③口口②
口③②口

口口口口
⑦口④口
口⑥口口 |--④-|
⑤口口④ |⑤⑥⑦-|
44
口⑦①口 |①--②|
⑥④④① |--③-|
②⑤口③ |--④-|
口②③口 |⑤⑥⑦-|
45
③⑥⑥③ |①--②|
口⑤⑤① |--③-|
④口②口 |--④-|
②①口④ |⑤-⑥-|
46
口口口口 |①②③④|
③口口② |⑤⑥⑦⑧|
口①口⑥
⑤⑦④⑧

⑬口⑫⑯
口⑪⑩口
⑨⑮⑭口 |⑨⑩⑪⑫|
口口口口 |⑬⑭⑮⑯|
47
口①口口 |①--②|
①口口口 |--③-|
③口口②
口③②口

口口口口
⑦口④口
口⑥口口 |--④-|
⑤口口④ |⑤⑥⑦-|
48
口⑦①口 |①--②|
口口⑥① |--③-|
②⑤口③ |--④-|
④②③④ |⑤⑥⑦-|
49
①⑥③口 |①--②|
②④口⑥ |--③-|
口⑤①③ |-④--|
口②④⑤ |⑤--⑥|
50
口口口口 |--①-|
口③①⑥ |-②--|
①口⑤② |--③-|
③②口④ |④⑤⑥-|
51
口①口口 |①--②|
①口口口 |--③-|
③口口②
口③②口

口口口口
⑦口④口
口⑥口口 |--④-|
⑤口口④ |⑤⑥⑦-|
52
口⑦①口 |①--②|
⑥④④① |--③-|
②⑤口③ |--④-|
口②③口 |⑤⑥⑦-|
53
③⑥⑥③ |①--②|
口⑤⑤① |--③-|
④口②口 |--④-|
②①口④ |⑤-⑥-|
54
口口口口 |①②③④|
③口口② |⑤⑥⑦⑧|
口①口⑥
⑤⑦④⑧

⑬口⑫⑯
口⑪⑩口
⑨⑮⑭口 |⑨⑩⑪⑫|
口口口口 |⑬⑭⑮⑯|
55
口①⑤口 |①--②|
②⑥口① |--③-|
③口⑦② |--④-|
④口③口 |⑤⑥⑦-|
56
口⑤口① |①--②|
①口⑥② |--③-|
②⑦口③ |--④-|
口③口④ |⑤⑥⑦-|
57
①口口① |①--②|
口口口口 |--③-|
口口③口
②③②口

⑥口口⑥
④⑥⑥⑤
⑤口口④ |-④--|
口口口口 |⑤--⑥|
58
口口④口 |----|
①⑤⑧口 |----|
口③⑥口 |①②③④|
⑦口②口 |⑤⑥⑦⑧|
59
④口⑦⑥ |①②-③|
⑦口⑧② |④-⑤⑥|
③口口⑤ |--⑦-|
口⑧口① |-⑧--|
60
口①口口 |①--②|
口口口① |--③-|
②口口口
③口②③

④⑥口④
口⑤⑤口
口口⑥口 |-④--|
口口口口 |⑤-⑥-|
61
⑦口①⑥ |①②-③|
④⑧⑦① |④-⑤⑥|
①②口⑤ |--⑦-|
③①口⑧ |-⑧--|
62
④⑤①口 |①--②|
②⑥⑥① |--③-|
①口④② |-④--|
③①③⑤ |⑤-⑥-|
63
口口①④ |①②-③|
⑥口口① |④-⑤⑥|
①②口③
⑤①口口

口⑦⑧口
口口口口
口口口口 |--⑦-|
口⑧⑦口 |-⑧--|
64
③口口② |①--②|
口口①口 |--③-|
口①口口
②口口③

口⑤口口
④口⑥口
口⑥口④ |-④--|
口口⑤口 |⑤-⑥-|
65
④⑤①口 |-①--|
⑤②口① |②--③|
③口②口 |--④-|
口③口④ |-⑤--|
66
口口口③ |①--②|
口口①口 |--③-|
口①口②
③口②口

⑤⑤口口
口⑥⑥口
口口④口 |-④--|
口口口④ |⑤-⑥-|
67
口口①④ |①②-③|
⑥口口① |④-⑤⑥|
①②口③
⑤①口口

⑧⑦⑧口
口口口口
口口口口 |--⑦-|
口口⑦口 |-⑧--|
68
口口口口 |①--②|
③口口口 |--③-|
①口①③
口②口②

⑥⑤口口
口④④口
口口⑥口 |-④--|
口口⑤口 |⑤-⑥-|
69
口口①④ |①②-③|
⑥口口① |④-⑤⑥|
①②口③
⑤①口口

口⑦口口
口口口⑧
⑧口口口 |--⑦-|
口口⑦口 |-⑧--|
70
①④①⑤ |①--②|
⑤③③口 |--③-|
口口④⑥ |-④--|
⑥②口② |⑤-⑥-|
71
⑤口①⑥ |①②-③|
⑥口④① |④--⑤|
①②⑤⑦ |--⑥-|
⑦①③口 |-⑦--|
72
③口①口 |①--②|
口②口① |--③-|
①口③口
口①口②

口口口口
④口⑤⑪
⑩⑥口⑦ |④⑤⑥⑦|
⑧口⑨口 |⑧⑨⑩⑪|
73
③④③① |-①--|
口①口⑤ |②--③|
⑤口口口 |--④-|
口②④② |-⑤--|
74
③⑤⑥④ |①--②|
⑤①②⑥ |--③-|
⑥②①⑤ |-④--|
④⑥⑤③ |⑤-⑥-|


不确定度: 0

タグ:

+ タグ編集
  • タグ:

このサイトはreCAPTCHAによって保護されており、Googleの プライバシーポリシー利用規約 が適用されます。

最終更新:2012年11月08日 18:41