10,000,000,000
TAG feat. 96

ADVANCED

Level: 8
BPM: 205
Notes: 495

1
口口口口 |----|
口口口口 |----|
口口口口 |----|
口口口口 |----|
2
口②①口 |①---|
②口口① |--②-|
口口口③ |----|
口口③口 |③---|
3
口口口口 |--①-|
口⑤④口 |----|
①③②口 |②-③-|
口①口口 |④-⑤-|
4
口口③口 |①---|
口口口③ |--②-|
②口口① |----|
口②①口 |③---|
5
口①口口 |--①-|
①③②口 |----|
口⑤④口 |②-③-|
口口口口 |④-⑤-|
6
口②①口 |①---|
②口口① |--②-|
口口口③ |----|
口口③口 |③---|
7
口口口口 |--①-|
口⑤④口 |----|
①③②口 |②-③-|
口①口口 |④-⑤-|
8
口口③口 |①---|
口口口③ |--②-|
②口口① |----|
口②①口 |③---|
9
口①口口 |--①-|
①⑤④口 |----|
口③②口 |②-③-|
口口口口 |④-⑤-|
10
②口口① |①---|
②口口① |--②-|
口口口③ |----|
口口口③ |③---|
11
口④③口 |--①-|
⑤口口② |----|
①口口口 |②-③-|
①口口口 |④-⑤-|
12
口口口③ |①---|
口口口③ |--②-|
②口口① |----|
②口口① |③---|
13
①口口口 |--①-|
①口口口 |----|
⑤口口② |②-③-|
口④③口 |④-⑤-|
14
②口口① |①---|
②口口① |--②-|
口口口③ |----|
口口口③ |③---|
15
⑤口口② |--①-|
口④③口 |----|
①口口口 |②-③-|
①口口口 |④-⑤-|
16
口口口③ |①---|
口口口③ |--②-|
②口口① |----|
②口口① |③---|
17
①②口口 |--①-|
口口口口 |--②-|
口⑤④口 |③-④-|
⑥口口③ |⑤-⑥-|
18
口口口① |①---|
口④口口 |----|
口口③口 |--②-|
口②口口 |③-④-|
19
口口①③ |①-②-|
②口口口 |--③-|
口口口④ |--④-|
⑤口口口 |--⑤-|
20
⑤③①④ |①---|
③⑤④① |②-③-|
口口口⑥ |--④-|
口口⑥② |⑤-⑥-|
21
口口口口 |----|
口口口口 |----|
口②①口 |--①-|
口口口口 |②---|
22
口口口口 |①---|
①③④① |----|
口口②口 |--②-|
口口口口 |③-④-|
23
口④④① |--①-|
口口口口 |--②-|
③口口口 |③---|
②口口口 |④---|
24
①口口口 |①-②-|
口②口口 |③-④-|
口口③口 |----|
口口口④ |----|
25
口口口口 |----|
口口口口 |----|
口口口口 |----|
口口口口 |----|
26
口口口口 |----|
口口③口 |----|
口②口口 |--①-|
口口①口 |②-③-|
27
③①口口 |①-②-|
口口口② |--③-|
④口口口 |--④-|
口口口⑤ |--⑤-|
28
④①③⑤ |①---|
①④⑤③ |②-③-|
⑥口口口 |--④-|
②⑥口口 |⑤-⑥-|
29
口口口口 |----|
口口口口 |----|
口①②口 |--①-|
口口口口 |②---|
30
口口口口 |①---|
①④③① |----|
口②口口 |--②-|
口口口口 |③-④-|
31
①④④口 |--①-|
口口口口 |--②-|
口口口③ |③---|
口口口② |④---|
32
口口口① |①-②-|
口口②口 |③-④-|
口③口口 |----|
④口口口 |----|
33
口口口口 |----|
口口口口 |----|
口口口口 |①---|
口①①口 |----|
34
口口口口 |①---|
①口口① |----|
口口⑤④ |②-③-|
口口③② |④-⑤-|
35
口口口口 |--①-|
②④③口 |②---|
①口口口 |③---|
口口口口 |④---|
36
②口口② |①---|
口口口③ |②---|
口①①口 |----|
口口口口 |③---|
37
口口口口 |----|
口口②口 |①---|
口③④口 |②-③-|
①口口① |--④-|
38
③口口② |①---|
口①口④ |②-③-|
口口口口 |----|
口口口口 |④---|
39
口口口口 |----|
③口口口 |①---|
②口口① |②---|
口口口口 |③---|
40
①口口口 |①---|
⑤口口⑤ |②-③-|
口口③② |--④-|
口④④口 |--⑤-|
41
口口口口 |----|
口口口口 |----|
口①①口 |①---|
口口口口 |----|
42
口口口口 |①---|
①口口① |----|
④⑤口口 |②-③-|
②③口口 |④-⑤-|
43
口口口口 |--①-|
口③口② |②---|
口口⑤① |③---|
口口④口 |④-⑤-|
44
口口口口 |①---|
口口①口 |--②-|
口②口④ |----|
口口口③ |③-④-|
45
口口口口 |①-②-|
④口口④ |--③-|
②口口口 |--④-|
①③③口 |----|
46
口口口⑦ |①-②-|
口口口⑦ |③-④-|
⑥③②⑤ |⑤-⑥-|
④口口① |--⑦-|
47
②③①口 |--①-|
②③①口 |--②-|
口④④口 |--③-|
口口口口 |--④-|
48
⑥口口口 |--①-|
⑥口口口 |②-③-|
④口口① |④-⑤-|
口③②⑤ |--⑥-|
49
口①③② |--①-|
口①③② |--②-|
口口口口 |--③-|
口④④口 |--④-|
50
口口口口 |①---|
口④③口 |--②-|
①口⑤① |--③-|
②口口② |④-⑤-|
51
口口口口 |----|
口口③口 |----|
口②口口 |--①-|
口口①口 |②-③-|
52
口①口口 |①---|
口口口口 |--②-|
②⑤④② |--③-|
③口口口 |④-⑤-|
53
口口口口 |①-②-|
④②①④ |--③-|
口口口口 |--④-|
口③③口 |----|
54
⑦口口口 |①-②-|
⑦口口口 |③-④-|
⑤②③⑥ |⑤-⑥-|
①口口④ |--⑦-|
55
口①③② |--①-|
口①③② |--②-|
口④④口 |--③-|
口口口口 |--④-|
56
口口口⑥ |--①-|
口口口⑥ |②-③-|
①口口④ |④-⑤-|
⑤②③口 |--⑥-|
57
②③①口 |--①-|
②③①口 |--②-|
口口口口 |--③-|
口④④口 |--④-|
58
口口口口 |①---|
口③④口 |--②-|
①⑤口① |--③-|
②口口② |④-⑤-|
59
口口口口 |----|
口③口口 |----|
口口②口 |--①-|
口①口口 |②-③-|
60
口口①口 |①---|
口口口口 |--②-|
②④⑤② |--③-|
口口口③ |④-⑤-|
61
口口口口 |①-②-|
④①②④ |--③-|
口口口口 |--④-|
口③③口 |----|
62
口口口口 |①---|
口口口口 |--②-|
口①①口 |----|
④②②③ |③-④-|
63
口口口口 |①---|
口②②口 |----|
口①①口 |②---|
口口口口 |----|
64
⑤⑤①① |①---|
②口口口 |②-③-|
④口口口 |④---|
口口③③ |⑤---|
65
口口口口 |①-②-|
口⑥⑦① |③---|
口④⑤③ |④-⑤-|
②②口口 |⑥-⑦-|
66
①①⑤⑤ |①---|
口口口② |②-③-|
口口口④ |④---|
③③口口 |⑤---|
67
口口口口 |①-②-|
①⑤④口 |③---|
③⑦⑥口 |④-⑤-|
口口②② |⑥-⑦-|
68
⑤⑤①① |①---|
②口口口 |②-③-|
④口口口 |④---|
口口③③ |⑤---|
69
口口口口 |①-②-|
口⑥⑦① |③---|
口④⑤③ |④-⑤-|
②②口口 |⑥-⑦-|
70
①①⑤⑤ |①---|
口口口② |②-③-|
口口口④ |④---|
③③口口 |⑤---|
71
口口口口 |①-②-|
①⑦⑥口 |③---|
③⑤④口 |④-⑤-|
口口②② |⑥-⑦-|
72
②③①① |①-②-|
⑧口⑦⑦ |③-④-|
口口口口 |⑤-⑥-|
⑤⑥④④ |⑦-⑧-|
73
⑥口口⑤ |①-②-|
⑧①口⑦ |③-④-|
③④②② |⑤-⑥-|
口口口口 |⑦-⑧-|
74
⑧口⑦⑦ |①-②-|
口口口口 |③-④-|
⑤⑥④④ |⑤-⑥-|
②③①① |⑦-⑧-|
75
口①口口 |①-②-|
③④②② |③-④-|
⑧口口⑦ |⑤-⑥-|
⑥口口⑤ |⑦-⑧-|
76
②③①① |①-②-|
⑤⑥④④ |③-④-|
口口口口 |⑤-⑥-|
⑧口⑦⑦ |⑦-⑧-|
77
⑧口口⑦ |①-②-|
⑥口口⑤ |③-④-|
③④②② |⑤-⑥-|
口①口口 |⑦-⑧-|
78
口口口口 |①-②-|
⑧口⑦⑦ |③-④-|
⑤⑥④④ |⑤-⑥-|
②③①① |⑦-⑧-|
79
口口②② |①-②-|
口①口口 |--③-|
④⑥⑤③ |④-⑤-|
口口⑦口 |⑥-⑦-|
80
②②口口 |①---|
③口④④ |--②-|
③口④④ |----|
①①口口 |③-④-|

不確定度: 0

最終更新:2014年12月12日 00:14