温故知新でいこっ!
日向美ビタースイーツ♪

BASIC

Level: 3
BPM: 118
Notes: 228

1
①口口② |----|
口口口口 |----|
口口口口 |①---|
口口口口 |②---|
2
口口口口 |①---|
口①①口 |----|
口②②口 |②---|
口口口口 |----|
3
口口口口 |①---|
②口口② |----|
口口口口 |②---|
口①①口 |----|
4
口口口口 |①---|
口口口口 |----|
口①①口 |②---|
口②②口 |----|
5
口口口口 |①---|
口口口口 |----|
①口口① |----|
口口口口 |----|
6
口口口口 |①---|
口②②口 |②---|
口②②口 |----|
口口口① |----|
7
①②口口 |①---|
③④口口 |②---|
口口口口 |③---|
口口口口 |④---|
8
口口③口 |①---|
④口②口 |②---|
口口①口 |③---|
口口口口 |④---|
9
口口口口 |①---|
口①口口 |②---|
口口③② |③---|
口④口口 |④---|
10
口④口口 |①---|
口口口口 |②---|
口②③口 |③---|
口口①口 |④---|
11
口口口① |①---|
口④②口 |②---|
口③④口 |③---|
口口口口 |④---|
12
①口口口 |----|
口②口口 |----|
口口口口 |①---|
口口口口 |②---|
13
口口口口 |①---|
口口④口 |②---|
①③口口 |③---|
口口②口 |④---|
14
口口口口 |①---|
口①口口 |----|
口口口口 |----|
口口②口 |②---|
15
口口口口 |①---|
③口口① |②---|
口④②口 |③---|
口口口口 |④---|
16
④口口口 |①---|
口③③口 |②---|
②口口② |③---|
口①①口 |④---|
17
口口③口 |①---|
口②口口 |②---|
口口①口 |③---|
口口口口 |----|
18
口口口口 |①---|
①口口① |----|
口②②口 |②---|
口口口口 |----|
19
口口②① |①---|
口口④③ |②---|
口口口口 |③---|
口口口口 |④---|
20
①②口口 |①---|
③④口口 |②---|
口口口口 |③---|
口口口口 |④---|
21
口口口口 |①---|
口口③口 |----|
②②①① |②---|
口口口口 |③---|
22
口口口口 |①---|
口①口口 |----|
口口口口 |----|
口口②口 |②---|
23
口口口口 |①---|
口①②口 |②---|
口③④口 |③---|
口口口口 |④---|
24
口口口③ |①---|
②②口口 |②---|
口口口口 |----|
①①口口 |③---|
25
口口口口 |①---|
口①口口 |②---|
口口②口 |③---|
口③口口 |----|
26
口口口口 |----|
口口口口 |----|
口口口口 |----|
口口口口 |----|
27
口口口口 |----|
口口口口 |----|
口口口口 |----|
口口①口 |①---|
28
口口口口 |①---|
③口口① |②---|
口④②口 |③---|
口口口口 |④---|
29
④口口口 |①---|
口③③口 |②---|
②口口② |③---|
口①①口 |④---|
30
口④③口 |①---|
口②口口 |②---|
口口①口 |③---|
口口口口 |④---|
31
口口口口 |①---|
①口口① |----|
口②②口 |②---|
口口口口 |----|
32
①②③④ |①---|
口口口口 |②---|
口口口口 |③---|
口口口口 |④---|
33
口口口口 |①---|
口口口口 |----|
①①②② |②---|
口口口口 |----|
34
口口口口 |①---|
①①②② |----|
口口口口 |②---|
口口口口 |----|
35
口口口口 |①---|
口口口口 |----|
口①①口 |----|
口口口② |②---|
36
口口口口 |①---|
口②口④ |②---|
①口③口 |③---|
口口口口 |④---|
37
口①①口 |①---|
口口口口 |----|
口口口口 |----|
口口口口 |----|
38
口口口口 |①---|
①①②② |----|
口口口口 |②---|
口口口口 |----|
39
口口口口 |①---|
口口口口 |----|
口①①口 |----|
口口口口 |----|
40
口口口口 |----|
口口口口 |----|
①口口② |①---|
①口口② |②---|
41
口口口口 |①---|
②①①② |----|
②①①② |②---|
口口口口 |----|
42
口口口口 |①---|
口①口口 |②---|
口口②口 |③---|
口③口④ |④---|
43
口口口口 |①---|
②①①② |----|
②①①② |②---|
口口口口 |----|
44
口③口口 |①---|
口口②口 |②---|
口①口口 |③---|
口口口口 |----|
45
④口②① |①---|
口口③口 |②---|
口口口口 |③---|
口口口口 |④---|
46
口①口口 |①---|
口②口口 |②---|
口④③口 |③---|
口口口口 |④---|
47
口口口口 |①---|
口口口② |----|
口口口口 |②---|
口口①口 |----|
48
口①口口 |①---|
口口口口 |----|
②口口③ |②---|
②口口③ |③---|
49
口口口口 |①---|
②①①② |----|
②①①② |②---|
口口口口 |----|
50
口口口口 |①---|
口①口口 |②---|
口口②口 |③---|
口③口④ |④---|
51
口口口口 |①---|
②①①② |----|
②①①② |②---|
口口口口 |----|
52
口③口口 |①---|
口口②口 |②---|
口①口口 |③---|
口口口口 |----|
53
④口②① |①---|
口口③口 |②---|
口口口口 |③---|
口口口口 |④---|
54
口①口口 |①---|
口②口口 |②---|
口④③口 |③---|
口口口口 |④---|
55
口口口口 |①---|
口口口② |----|
口口口口 |②---|
口口①口 |----|
56
口①口口 |①---|
口口口② |----|
口口③口 |②---|
口口口口 |③---|
57
口口口口 |①---|
口口口口 |----|
口口口口 |②---|
口①口② |----|
58
口口口口 |①---|
②口口口 |----|
口③口口 |②---|
①口口口 |③---|
59
口口口口 |①---|
口口口口 |----|
口口口口 |②---|
②口①口 |----|
60
口口口口 |①---|
口口口口 |----|
口口口口 |----|
口口口① |----|

不確定度: 0

最終更新:2014年12月12日 00:12