温故知新でいこっ!
日向美ビタースイーツ♪

ADVANCED

Level: 6
BPM: 118
Notes: 444

1
①口口口 |----|
口②口口 |----|
口口③口 |①-②-|
口口口④ |③-④-|
2
口口④④ |①---|
口⑤②口 |②-③-|
口③⑥口 |④---|
①①口口 |⑤-⑥-|
3
①①口口 |①---|
②口口② |----|
口口口口 |②---|
口口口口 |----|
4
口口口口 |①---|
口口口口 |----|
口②②口 |②---|
①口口① |----|
5
口口口口 |①---|
①口口① |----|
口口口口 |----|
口口口口 |----|
6
②口口② |①---|
口③口口 |②---|
口口口口 |----|
①口口口 |--③-|
7
口口口口 |①---|
口口①口 |②-③-|
④⑤⑥口 |④-⑤-|
口②③口 |⑥---|
8
口口口① |①-②-|
口②口口 |③-④-|
口口⑦③ |⑤---|
⑥④口⑤ |⑥-⑦-|
9
⑤口口⑥ |①---|
①口口④ |②-③-|
口③口口 |④---|
口口口② |⑤-⑥-|
10
口口⑥⑥ |①-②-|
口①②口 |③-④-|
口③④口 |⑤---|
⑤口口口 |⑥---|
11
①口口口 |①-②-|
②口口口 |③-④-|
③口口口
口口口④

⑧口口⑧
口口口口
口⑦⑦⑥ |⑤-⑥-|
口口⑤口 |⑦--⑧|
12
口⑤口口 |----|
口口口口 |--①-|
口口口口 |②-③-|
①②③④ |④-⑤-|
13
口口口口 |①-②-|
口②口口 |③-④-|
口④①口
③口口口

口口口口
口口口口
口口⑧⑥ |⑤-⑥-|
口⑦⑤口 |⑦-⑧-|
14
口口②口 |①-②-|
口①口口 |----|
口口口口 |--③-|
口⑤④③ |④-⑤-|
15
口口②① |①-②-|
⑤⑥④③ |③-④-|
⑦⑧口口 |⑤-⑥-|
口口口口 |⑦-⑧-|
16
③口⑧④ |①-②-|
口⑤口口 |③-④-|
口⑦口口 |⑤-⑥-|
②口⑥① |⑦-⑧-|
17
①②口口 |①-②-|
③④⑤口 |③-④-|
口口⑦⑥ |--⑤-|
口口口口 |⑥-⑦-|
18
口口口口 |①--②|
③③口口 |--③-|
②②口口 |----|
①①口口 |----|
19
口口口口 |①-②-|
口⑦口口 |③-④-|
③④⑤⑥ |⑤-⑥-|
口①②口 |⑦---|
20
口②①口 |①-②-|
⑥⑤④③ |③-④-|
口口口口 |⑤-⑥-|
口⑦口口 |--⑦-|
21
⑤口口④ |①---|
口口②口 |②-③-|
①①③③ |--④-|
④口口⑤ |⑤---|
22
口口口口 |①---|
①③②口 |②-③-|
⑤②③⑤ |----|
④口口④ |④-⑤-|
23
⑤②②⑧ |①-②-|
①③③① |③-④-|
口④④口 |⑤-⑥-|
⑦口口⑥ |⑦-⑧-|
24
口⑥口口 |①-②-|
③口口③ |③---|
②口⑤② |--④-|
④①①口 |⑤-⑥-|
25
口口口口 |①-②-|
④③②① |③-④-|
口口口口 |⑤-⑥-|
口⑥⑤口 |----|
26
④③②① |①---|
口口口口 |②---|
口口口口 |③---|
口口口口 |④---|
27
口口口口 |①---|
口口口口 |----|
口口口口 |--②-|
①④③② |③-④-|
28
口口②① |①-②-|
⑤⑥④③ |③-④-|
⑦⑧口口 |⑤-⑥-|
口口口口 |⑦-⑧-|
29
③口⑧④ |①-②-|
口⑤口口 |③-④-|
口⑦口口 |⑤-⑥-|
②口⑥① |⑦-⑧-|
30
①②口口 |①-②-|
③④⑥⑤ |③-④-|
口口⑧⑦ |⑤-⑥-|
口口口口 |⑦-⑧-|
31
口口口口 |①--②|
③③口口 |--③-|
②②口口 |----|
①①口口 |----|
32
口口口⑤ |--①-|
口口口口 |②-③-|
⑥口口口 |④--⑤|
①②③④ |--⑥-|
33
⑤口口⑥ |--①-|
口口①口 |②-③-|
口②口口 |④---|
口④③口 |⑤-⑥-|
34
口口口口 |--①-|
口①④⑥ |②-③-|
口③②口 |④--⑤|
口口口⑤ |--⑥-|
35
口口口口 |----|
口口③口 |----|
口②口口 |--①-|
①口口口 |②-③-|
36
①口②口 |--①-|
口③口口 |②-③-|
口⑤⑤口 |④---|
④口口④ |⑤---|
37
①口口② |①-②-|
①⑤口② |----|
口口④口 |--③-|
口③口口 |④-⑤-|
38
口口①口 |----|
口②口口 |----|
口口③口 |①-②-|
口④口口 |③-④-|
39
①口口口 |----|
口②口口 |①---|
口口③口 |②---|
口口口口 |③---|
40
口口口口 |①---|
口口口口 |----|
口口口口
口口口①

③口口②
③口口②
⑤口口④ |②-③-|
⑤口口④ |④-⑤-|
41
口⑤②口 |①---|
④①①④ |②-③-|
④①①④ |④---|
口③⑥口 |⑤-⑥-|
42
口口口④ |①-②-|
口口③口 |③-④-|
口②口口
①口口口

⑤口口口
口口口口
⑦口口⑥ |⑤---|
⑦口口⑥ |⑥-⑦-|
43
口②⑤口 |①---|
④①①④ |②-③-|
④①①④ |④---|
口⑥③口 |⑤-⑥-|
44
④口口⑤ |①-②-|
口③口口 |③-④-|
口口②口 |⑤---|
口口口① |----|
45
口①②口 |①-②-|
①口口② |③-④-|
④口口③
口④③口

口⑦⑥口
⑦⑤⑤⑥
口口口口 |⑤---|
口口口口 |⑥-⑦-|
46
④口口⑤ |①-②-|
口口口口 |③---|
①③③② |④-⑤-|
⑥①②⑦ |⑥-⑦-|
47
⑤口口② |①---|
口①①口 |②-③-|
口④④口 |④---|
③口口⑥ |⑤-⑥-|
48
口③③口 |①-②-|
口口口口 |③---|
②口口②
口①①口

⑤口口④
⑤口口④
⑦口口⑥ |④-⑤-|
⑦口口⑥ |⑥-⑦-|
49
口⑤②口 |①---|
④①①④ |②-③-|
④①①④ |④---|
口③⑥口 |⑤-⑥-|
50
口口口④ |①-②-|
口口③口 |③-④-|
口②口口
①口口口

⑤口口口
口口口口
⑦口口⑥ |⑤---|
⑦口口⑥ |⑥-⑦-|
51
口②⑤口 |①---|
④①①④ |②-③-|
④①①④ |④---|
口⑥③口 |⑤-⑥-|
52
④口口⑤ |①-②-|
口③口口 |③-④-|
口口②口 |⑤---|
口口口① |----|
53
口④②口 |①-②-|
④口口② |③-④-|
口①③口
①口口③

口口⑥口
口⑤⑤⑥
口⑦口口 |⑤---|
⑦口口口 |⑥-⑦-|
54
口①口口 |①-②-|
①③③口 |③---|
口口②口
口口口②

④口口⑤
口口口口
口口口口 |④-⑤-|
⑥口口⑦ |⑥-⑦-|
55
口口口② |①---|
口①①口 |②-③-|
口口口口
③口口口

口口⑤⑦
口⑥口口
口④④口 |④-⑤-|
口口口口 |⑥-⑦-|
56
①口口口 |----|
口②口口 |----|
口口③口 |①-②-|
口口口④ |③-④-|
57
口口④④ |①---|
口⑤②口 |②-③-|
口③⑥口 |④---|
①①口口 |⑤-⑥-|
58
①①②② |①---|
口口口口 |②---|
口口口口
口口口口

口口口⑥
口口⑤口
口④口口 |③-④-|
③口口口 |⑤-⑥-|
59
①①口口 |①---|
口②⑤口 |②-③-|
口⑥③口 |④---|
④④口口 |⑤-⑥-|
60
②②口口 |①---|
口口口口 |②---|
口口口口 |----|
口口①① |----|

不確定度: 0

最終更新:2014年12月12日 00:12