Che Che Chelip~魔法のコトバ~
Chelip
BASIC
Level: 3
BPM: 125-130
Notes: 178
BPM: 125
1
口口口口 |----|
口口口口 |----|
口口①口 |----|
口口口口 |①---|
2
口口口口 |①---|
口①①口 |----|
口②②口 |②---|
口口口口 |----|
3
口口口口 |----|
口口口口 |----|
口①口口 |----|
口口口口 |①---|
4
口口口口 |①---|
口①①口 |----|
口②②口 |②---|
口口口口 |----|
5
口口口口 |----|
口口口口 |----|
口口①口 |----|
口口口口 |①---|
6
口口口口 |①---|
口①①口 |----|
口②②口 |②---|
口口口口 |----|
7
口口口口 |①---|
口口口口 |----|
口③口口 |②---|
①口口② |③---|
8
口口口口 |①---|
口①①口 |----|
口②②口 |②---|
口口口口 |----|
2
BPM: 130
9
口口口口 |①---|
口口口口 |----|
口口③口 |②---|
②口口① |③---|
10
④口口口 |①---|
口①①口 |②---|
口③③口 |③---|
口②②口 |④---|
11
口①②③ |①---|
口口口口 |②---|
口④口口 |③---|
口口口口 |④---|
12
口口口口 |①---|
口②①口 |②---|
口口③口 |③---|
④口口口 |④---|
13
口口口口 |①---|
口口口口 |②---|
口④口口 |③---|
口①②③ |④---|
14
口口口④ |①---|
口①①口 |②---|
口③③口 |③---|
口②②口 |④---|
15
③②①口 |①---|
口口口口 |②---|
口口④口 |③---|
口口口口 |④---|
16
口口口口 |①---|
口①②口 |②---|
口③口口 |③---|
口口口口 |----|
17
口口口口 |①---|
①口口① |----|
口口③口 |②---|
口②口口 |③---|
18
口口口口 |①---|
口①口② |----|
口口口口 |②---|
口口口口 |----|
19
口口口口 |①---|
口口口口 |----|
口口口① |②---|
口口口② |----|
20
口口口口 |①---|
②口①口 |----|
口口口口 |②---|
口口口口 |----|
21
口口口口 |①---|
口口口口 |----|
①口口口 |②---|
②口口口 |----|
22
口②④口 |①---|
口口口口 |②---|
口①③口 |③---|
口口口口 |④---|
23
口口口口 |①---|
口①①口 |----|
口口③口 |②---|
口②②口 |③---|
24
口口口口 |①---|
口口口口 |②---|
①②③④ |③---|
口口口口 |④---|
25
口口口口 |①---|
口②②口 |----|
口口口口 |②---|
口①①口 |----|
26
③口口① |①---|
口口口口 |②---|
④口口② |③---|
口口口口 |④---|
27
口口口口 |①---|
口①①口 |----|
口③口口 |②---|
口②②口 |③---|
28
口口口口 |①---|
口口口口 |②---|
④③②① |③---|
口口口口 |④---|
29
口口口口 |①---|
口①①口 |----|
口口口③ |②---|
口②②口 |③---|
30
②口口口 |①---|
口口①口 |----|
口口口口 |②---|
口口口口 |----|
31
口口口口 |①---|
口①口口 |----|
口口②口 |②---|
口口口口 |----|
32
口口口口 |①---|
口口口口 |----|
口②口口 |②---|
口①口口 |----|
33
口②口口 |①---|
口①口口 |----|
口口口口 |②---|
口口口口 |----|
34
口口口① |①---|
口口②口 |----|
口口口口 |②---|
口口口口 |----|
35
口口口口 |①---|
口口口口 |----|
口①口口 |②---|
口口②口 |----|
36
口口口口 |①---|
口①口口 |----|
口口②口 |②---|
口口口口 |----|
37
口口口口 |①---|
②口口② |----|
②口③② |②---|
口①口口 |③---|
38
④口口口 |①---|
口①①口 |②---|
口③③口 |③---|
口②②口 |④---|
39
口①②③ |①---|
口口口口 |②---|
口④口口 |③---|
口口口口 |④---|
40
口口口口 |①---|
口②①口 |②---|
口口③口 |③---|
④口口口 |④---|
41
口口口口 |①---|
口口口口 |②---|
口④口口 |③---|
口①②③ |④---|
42
口口口④ |①---|
口①①口 |②---|
口③③口 |③---|
口②②口 |④---|
43
③②①口 |①---|
口口口口 |②---|
口口④口 |③---|
口口口口 |④---|
44
口口口口 |①---|
口①②口 |②---|
口③口口 |③---|
口口口口 |----|
45
口口口口 |①---|
①口口① |----|
口口③口 |②---|
口②口口 |③---|
46
口口口口 |①---|
口①口② |----|
口口口口 |②---|
口口口口 |----|
47
口口口口 |①---|
口口口口 |----|
口口口① |②---|
口口口② |----|
48
口口口口 |①---|
②口①口 |----|
口口口口 |②---|
口口口口 |----|
49
口口口口 |①---|
口口口口 |----|
①口口口 |②---|
②口口口 |----|
50
口口口口 |①---|
口口②口 |----|
口①口口 |②---|
口口口口 |----|
51
口口口口 |①---|
③①口③ |----|
③口②③ |②---|
口口口口 |--③-|
不確定度: 0