Che Che Chelip~魔法のコトバ~
Chelip

ADVANCED

Level: 6
BPM: 125-130
Notes: 332

BPM: 125
1
口口②① |----|
口口口口 |----|
口口口口 |----|
口口口口 |①-②-|
2
口①口口 |①--②|
口口口② |--③-|
口③口口 |④---|
口口④口 |----|
3
①②口口 |----|
口口口口 |----|
口口口口 |----|
口口口口 |①-②-|
4
口口①口 |①--②|
②口口口 |--③-|
口口③口 |④---|
口④口口 |----|
5
口口②① |----|
口口口口 |----|
口口口口 |----|
口口口口 |①-②-|
6
口①口口 |①--②|
口口口② |--③-|
口③口口 |④---|
口口④口 |----|
7
①②口口 |----|
口口口口 |----|
口口口口 |----|
口口口口 |①-②-|
8
口口①口 |①--②|
②口口口 |--③-|
口口③口 |④---|
口④口口 |----|
2
BPM: 130
9
②③口口 |----|
②③口口 |----|
口口口口 |①---|
①口口① |②-③-|
10
口口①口 |①--②|
口口①口 |--③-|
②⑥③口 |④---|
⑤④口口 |⑤-⑥-|
11
④②③④ |①-②③|
①口⑦⑥ |--④-|
口口⑤口 |⑤---|
口口口口 |⑥-⑦-|
12
④口口④ |①-②③|
口①口口 |--④-|
口口②口
口③口口

口口口口
口口口口
口⑤⑦⑦ |⑤---|
⑥⑥口口 |⑥-⑦-|
13
③③②② |①-②-|
①①口口 |③-④-|
口口口口
口口④④

口口⑦⑥
口口⑦⑥
口口口口 |⑤---|
⑤⑤口口 |⑥-⑦-|
14
口①口口 |①--②|
口①口口 |--③-|
口③⑥② |④---|
口口④⑤ |⑤-⑥-|
15
④③②④ |①-②③|
⑥⑦口① |--④-|
口⑤口口 |⑤---|
口口口口 |⑥-⑦-|
16
⑤⑥⑥④ |①-②-|
口口①口 |③-④-|
口口口口 |⑤--⑥|
②⑦⑦③ |--⑦-|
17
②口口① |----|
口口③口 |--①-|
口④⑤口 |②-③④|
口⑥口口 |-⑤⑥-|
18
口①口口 |①---|
口口口口 |----|
口口③口 |----|
口口口② |②-③-|
19
②④⑤③ |①-②③|
口①口口 |-④⑤-|
口口口口 |----|
口口口口 |----|
20
口口①口 |①---|
口口口口 |----|
口③口口 |----|
②口口口 |②-③-|
21
③⑤④② |①-②③|
口口①口 |-④⑤-|
口口口口 |----|
口口口口 |----|
22
④②②④ |①---|
口口口口 |②---|
口口口口 |③---|
③①①③ |④---|
23
⑤口口⑥ |①-②-|
①②③④ |③-④-|
①②③④ |----|
口口口口 |⑤-⑥-|
24
⑦⑥⑤口 |①-②-|
口①②口 |③-④-|
③口口④ |--⑤-|
口口口口 |⑥-⑦-|
25
口口口口 |--①-|
口①②③ |②-③-|
口口口口 |----|
口口口口 |----|
26
②④④② |①---|
口口口口 |②---|
口口口口 |③---|
①③③① |④---|
27
口口口口 |①-②-|
④③②① |③-④-|
④③②① |----|
⑤口口⑥ |⑤-⑥-|
28
⑥口口口 |①-②-|
口③④口 |③-④-|
口①②口 |--⑤-|
口⑤口口 |--⑥-|
29
口④口④ |--①-|
口口①口 |②-③-|
口②口口 |----|
口口③口 |④---|
30
口口口④ |①---|
口口口口 |----|
口口③口 |②-③-|
①②①口 |--④-|
31
④口口口 |--①-|
口①口口 |②-③-|
口口②口 |----|
口③口口 |--④-|
32
口口口① |①-②-|
②口口③ |③-④-|
④口口⑤ |⑤-⑥-|
⑥⑧口⑦ |⑦-⑧-|
33
口口口⑤ |①-②-|
口④口口 |③-④-|
口②③口 |----|
口口①口 |--⑤-|
34
口口口口 |①---|
口口①① |②---|
②②口口 |③---|
④④③③ |④---|
35
④口口④ |①---|
口②③口 |--②-|
口口①① |③---|
口口口口 |④---|
36
口②③口 |①-②-|
①⑦口④ |③-④-|
口口⑥口 |--⑤-|
口⑤口口 |⑥-⑦-|
37
②口口① |①-②-|
口口口口 |③-④-|
④口口③
口口口口

⑥⑦口口
⑥⑦口口
口⑤⑤口 |⑤---|
口⑤⑤口 |⑥-⑦-|
38
口口①口 |①--②|
口口①口 |--③-|
②⑥③口 |④---|
⑤④口口 |⑤-⑥-|
39
④②③④ |①-②③|
①口⑦⑥ |--④-|
口口⑤口 |⑤---|
口口口口 |⑥-⑦-|
40
④口口④ |①-②③|
口①口口 |--④-|
口口②口
口③口口

口口口口
口口口口
口⑤⑦⑦ |⑤---|
⑥⑥口口 |⑥-⑦-|
41
③③②② |①-②-|
①①口口 |③-④-|
口口口口
口口④④

口口⑦⑥
口口⑦⑥
口口口口 |⑤---|
⑤⑤口口 |⑥-⑦-|
42
口①口口 |①--②|
口①口口 |--③-|
口③⑥② |④---|
口口④⑤ |⑤-⑥-|
43
④③②④ |①-②③|
⑥⑦口① |--④-|
口⑤口口 |⑤---|
口口口口 |⑥-⑦-|
44
⑤⑥⑥④ |①-②-|
口口①口 |③-④-|
口口口口 |⑤--⑥|
②⑦⑦③ |--⑦-|
45
②口口① |----|
口口③口 |--①-|
口④⑤口 |②-③④|
口⑥口口 |-⑤⑥-|
46
口①口口 |①---|
口口口口 |----|
口口③口 |----|
口口口② |②-③-|
47
②④⑤③ |①-②③|
口①口口 |-④⑤-|
口口口口 |----|
口口口口 |----|
48
口口①口 |①---|
口口口口 |----|
口③口口 |----|
②口口口 |②-③-|
49
③⑤④② |①-②③|
口口①口 |-④⑤-|
口口口口 |----|
口口口口 |----|
50
口①①口 |①---|
口口③③ |----|
口口口口 |②--③|
口口口② |----|
51
口口口口 |①-②-|
口口口口 |③---|
①②③口
口口口口

⑤⑤④④
口⑥⑥口
口⑥⑥口 |④---|
④④⑤⑤ |⑤-⑥-|

不確定度: 0

最終更新:2014年12月12日 00:10