Che Che Chelip~魔法のコトバ~
Chelip

EXTREME

Level: 8
BPM: 125-130
Notes: 486

BPM: 125
1
①口口口 |----|
口②口口 |----|
①口口口 |----|
口②口口 |①-②-|
2
④②①口 |①--②|
口口口③ |--③-|
④②①口 |④---|
口口口③ |----|
3
口口口口 |①---|
口①①口 |----|
口口口口
口口口口

口口口②
口口③口
口口口② |----|
口口③口 |②-③-|
4
口①②④ |①--②|
③口口口 |--③-|
口①②④ |④---|
③口口口 |----|
5
口口口口 |①---|
口①①口 |----|
口口口口
口口口口

②口口口
口③口口
②口口口 |----|
口③口口 |②-③-|
6
口②①口 |①--②|
口口口③ |--③-|
口②①口
口口口③

④口⑤⑧
口⑥口口
④口⑦口 |④-⑤⑥|
口口口口 |⑦-⑧-|
7
口口口口 |①---|
口口口口 |②---|
口口口口
口①②口

口口口④
口口⑤口
口口口④ |③---|
口口⑤③ |④-⑤-|
8
口①②④ |①--②|
③口口口 |--③-|
口①②④ |④---|
③口口⑤ |⑤---|

BPM: 130
9
口①口口 |①---|
口②口口 |②---|
口口口口
口口口口

④口口口
口⑤口口
④口口口 |③---|
③⑤口③ |④-⑤-|
10
口②①口 |①--②|
口口口④ |③-④-|
口②①③
口口口④

⑤口口口
口口口口
⑤口⑦口 |⑤---|
⑥口口口 |⑥-⑦-|
11
④①口④ |①-②③|
口口②④ |--④-|
口③口口
口口口口

口口口口
口⑥⑦口
⑤⑦⑥口 |⑤---|
⑤口口⑤ |⑥-⑦-|
12
口口②口 |①-②③|
①④口④ |--④-|
口口口①
③②④口

口⑤口口
口口口口
⑤⑦⑤⑦ |⑤---|
口⑥口⑥ |⑥-⑦-|
13
①口①口 |①-②-|
②④②④ |③-④-|
③口③口
口口口口

口口口⑥
口口⑦口
口口口⑥ |⑤---|
口⑤⑦⑤ |⑥-⑦-|
14
口①②口 |①--②|
④口口口 |③-④-|
③①②口
④口口口

口口口⑤
口口口口
⑦口口⑤ |⑤---|
口口口⑥ |⑥-⑦-|
15
④口①④ |①-②③|
④②口口 |--④-|
口口③口
口口口口

口⑦口口
口口口⑥
口口⑦⑤ |⑤---|
⑤口⑥⑤ |⑥-⑦-|
16
口口②口 |①-②-|
①④③口 |③-④-|
口②口口
④①口③

⑤口口⑤
⑥口口⑦
⑥⑥⑦⑦ |⑤--⑥|
口口口口 |--⑦-|
17
③①①④ |----|
口⑤⑥口 |--①-|
口③④口 |②-③④|
⑤②②⑥ |-⑤⑥-|
18
口①①口 |①---|
②口口口 |②---|
③口⑤口 |③---|
④口口口 |④-⑤-|
19
口①口口 |①-②③|
口③②口 |-④⑤-|
⑥口口口 |⑥---|
⑦⑤④口 |⑦---|
20
口①①口 |①---|
②口口口 |②---|
③口⑤口 |③---|
④口口口 |④-⑤-|
21
口①口口 |①-②③|
口⑤④口 |-④⑤-|
口口口口 |----|
口③②口 |----|
22
①口口口 |①---|
①口口口 |②---|
①口口口
①②口②

④口④口
口③口③
口口③口 |③---|
口口③口 |④---|
23
口口口① |①-②-|
②口①③ |③-④-|
④②③口
口④口口

口口口口
口口口口
口⑥口口 |----|
口口⑤口 |⑤-⑥-|
24
②口④口 |①-②-|
口口①口 |③-④-|
⑤口口③ |--⑤-|
⑦⑥口口 |⑥-⑦-|
25
口口口口 |--①-|
口口口口 |②-③-|
口口口① |----|
口口②③ |----|
26
④①②③ |①---|
①④③② |②---|
口①口③ |③---|
①口③口 |④---|
27
口口口口 |①-②-|
口④③口 |③-④-|
④②①③
②口口①

口口口⑤
口口口口
口⑥口口 |----|
口口口口 |⑤-⑥-|
28
口④口口 |①-②-|
⑤⑤③口 |③-④-|
口口口② |--⑤-|
⑥⑥①口 |--⑥-|
29
④口口④ |--①-|
口口③口 |②-③-|
口②口口 |----|
口口①口 |④---|
30
④③④口 |①---|
②口③口 |----|
口②口③ |②-③-|
①口②① |--④-|
31
口口口④ |--①-|
口口口口 |②-③-|
口口①口 |----|
口②③口 |--④-|
32
①口口口 |①-②-|
口③口② |③-④-|
⑤口⑧④ |⑤-⑥-|
⑦口口⑥ |⑦-⑧-|
33
③⑤②⑤ |①-②-|
口①⑤口 |③-④-|
口口口口 |----|
口口口④ |--⑤-|
34
口口口口 |①---|
②口口口 |②---|
口①口②
①口①口

口④口口
口口口③
③口口口 |③---|
口口④口 |④---|
35
②口①口 |①---|
口②口口 |--②-|
口口口口
口①口口

口口口③
口口③口
口口口口 |③---|
口④④口 |④---|
36
口②③口 |①-②-|
①口口④ |③-④-|
口口口口
口口口口

口口口口
⑦⑦口口
口⑥⑥口 |--⑤-|
口口⑤⑤ |⑥-⑦-|
37
②⑥③① |①-②-|
口口口口 |③④⑤⑥|
口口口口
④口口⑤

⑧口口口
口⑨⑦口
⑧⑦口口 |⑦---|
口⑨口口 |⑧-⑨-|
38
口②①口 |①--②|
口口口④ |③-④-|
口②①③
口口口④

⑤口口口
口口口口
⑤口⑦口 |⑤---|
⑥口口口 |⑥-⑦-|
39
④①口④ |①-②③|
口口②④ |--④-|
口③口口
口口口口

口口口口
口⑥⑦口
⑤⑦⑥口 |⑤---|
⑤口口⑤ |⑥-⑦-|
40
口口②口 |①-②③|
①④口④ |--④-|
口口口①
③②④口

口⑤口口
口口口口
⑤⑦⑤⑦ |⑤---|
口⑥口⑥ |⑥-⑦-|
41
①口①口 |①-②-|
②④②④ |③-④-|
③口③口
口口口口

口口口⑥
口口⑦口
口口口⑥ |⑤---|
口⑤⑦⑤ |⑥-⑦-|
42
口①②口 |①--②|
④口口口 |③-④-|
③①②口
④口口口

口口口⑤
口口口口
⑦口口⑤ |⑤---|
口口口⑥ |⑥-⑦-|
43
④口①④ |①-②③|
④②口口 |--④-|
口口③口
口口口口

口⑦口口
口口口⑥
口口⑦⑤ |⑤---|
⑤口⑥⑤ |⑥-⑦-|
44
口口②口 |①-②-|
①④③口 |③-④-|
口②口口
④①口③

⑤口口⑤
⑥口口⑦
⑥⑥⑦⑦ |⑤--⑥|
口口口口 |--⑦-|
45
③①①④ |----|
口⑤⑥口 |--①-|
口③④口 |②-③④|
⑤②②⑥ |-⑤⑥-|
46
口①①口 |①---|
②口口口 |②---|
③口⑤口 |③---|
④口口口 |④-⑤-|
47
口①口口 |①-②③|
口③②口 |-④⑤-|
⑥口口口 |⑥---|
⑦⑤④口 |⑦---|
48
口①①口 |①---|
②口口口 |②---|
③口⑤口 |③---|
④口口口 |④-⑤-|
49
口①口口 |①-②③|
口⑤④口 |-④⑤-|
⑥口口口 |⑥---|
⑦③②口 |⑦---|
50
口①①口 |①---|
②口口口 |②---|
口口口口
口口口口

口④口口
口口口口
③口③口 |③--④|
⑤口口口 |⑤---|
51
口口口口 |①-②-|
口③②① |③---|
口口口口
口③②①

⑤④④⑥
口⑥⑤口
口⑤⑥口 |④---|
⑥口口⑤ |⑤-⑥-|

不確定度: 0

最終更新:2014年12月12日 00:10