ごめんなさいのKissing You
E-Girls

BASIC

Level: 2
BPM: 143
Notes: 153

1
口口口口 |----|
口口口口 |----|
口口口口 |----|
口口口口 |----|
2
口口口口 |①---|
口口口口 |----|
口口口口 |②---|
口①②口 |----|
3
口口口口 |①---|
口口口口 |----|
口①②口 |②---|
口口口口 |----|
4
口口口口 |①---|
口①②口 |----|
口口口口 |②---|
口口口口 |----|
5
口①②口 |①---|
口口口口 |----|
口口口口 |②---|
口口口口 |----|
6
口口口口 |①---|
①口口口 |----|
口②口口 |②---|
口口口口 |----|
7
口口口口 |①---|
口口③口 |②---|
口口②口 |③---|
口口①口 |----|
8
口口口口 |①---|
口口口① |----|
口口②口 |②---|
口口口口 |----|
9
口口口口 |①---|
口③口口 |②---|
口②口口 |③---|
口①口口 |----|
10
口口口口 |①---|
①口口口 |----|
口②口口 |②---|
口口口口 |----|
11
口口口口 |①---|
口口③口 |②---|
口口②口 |③---|
口口①口 |----|
12
口口口口 |①---|
口①口口 |----|
口口口口 |----|
口口口口 |----|
13
口口①口 |①---|
口②口口 |②---|
口口③口 |③---|
口④口口 |④---|
14
口口口口 |①---|
口口口① |----|
口口②口 |②---|
口口口口 |----|
15
口④口口 |①---|
口③口口 |②---|
口②口口 |③---|
口①口口 |④---|
16
口口口口 |①---|
①口口口 |----|
口②口口 |②---|
口口口口 |----|
17
口口④口 |①---|
口口③口 |②---|
口口②口 |③---|
口口①口 |④---|
18
口口口口 |①---|
口口口① |----|
口口②口 |②---|
口口口口 |----|
19
口④口口 |①---|
口③口口 |②---|
口②口口 |③---|
口①口口 |④---|
20
口口①口 |①---|
口口口口 |----|
口口口口 |----|
口口口口 |----|
21
口口口口 |----|
①口口① |----|
口口口口 |①---|
口口口口 |----|
22
口①口口 |①---|
口口②口 |----|
口口口口 |②---|
口口口口 |----|
23
口口口口 |①---|
口口口口 |----|
口①口口 |②---|
口口②口 |----|
24
口口口口 |①---|
口口口口 |----|
②②口口 |②---|
①①口口 |----|
25
②②口口 |①---|
①①口口 |----|
口口口口 |②---|
口口口口 |----|
26
口口①口 |①---|
口②口口 |----|
口口口口 |②---|
口口口口 |----|
27
口口口口 |①---|
口口口口 |----|
口口①口 |②---|
口②口口 |----|
28
口口口口 |①---|
口口口口 |----|
口口②② |②---|
口口①① |----|
29
口口②② |①---|
口口①① |----|
口口口口 |②---|
口口口口 |----|
30
口口口口 |①---|
口①①口 |----|
口②②口 |②---|
口口口口 |----|
31
口口口口 |①---|
口口口口 |②---|
口口口口 |③---|
①②③口 |----|
32
口口口口 |①---|
口①①口 |----|
口②②口 |②---|
口口口口 |----|
33
口口口口 |①---|
口口口口 |②---|
口口口口 |③---|
口③②① |----|
34
口口口口 |①---|
①口口① |----|
②口口② |②---|
口口口口 |----|
35
口口口口 |①---|
口①①口 |----|
口②②口 |②---|
口口口口 |----|
36
口口口① |①---|
口口②口 |②---|
口③口口 |③---|
④口口口 |④---|
37
口口口口 |①---|
口口口② |----|
口口口口 |②---|
口①口口 |----|
38
口口口口 |①---|
口①①口 |----|
口②②口 |②---|
口口口口 |----|
39
口口口口 |①---|
口口口口 |②---|
口口口口 |③---|
①②③口 |----|
40
口口口口 |①---|
口①①口 |----|
口②②口 |②---|
口口口口 |----|
41
口口口口 |①---|
口口口口 |②---|
口口口口 |③---|
口③②① |----|
42
口口口口 |①---|
①①①① |----|
②②②② |②---|
口口口口 |----|
43
①①①① |①---|
②②②② |----|
口口口口 |②---|
口口口口 |----|
44
口口口① |①---|
口口②口 |②---|
口③口口 |③---|
④口口口 |④---|
45
口口口口 |①---|
口口口② |----|
口口口口 |②---|
口口①口 |----|
46
口口口口 |①---|
口口口口 |----|
②口口口 |②---|
口①口口 |----|
47
口②口口 |①---|
①口口口 |----|
口口口口 |②---|
口口口口 |----|
48
口口①口 |①---|
口口口② |----|
口口口口 |②---|
口口口口 |----|
49
口口口口 |①---|
口口口口 |----|
口口口① |②---|
口口②口 |----|
50
口口口口 |①---|
口①②口 |----|
口口口口 |②---|
口口口口 |----|
51
口口口口 |①---|
口口口口 |----|
口①②口 |②---|
口口口口 |----|
52
口口口口 |①---|
口口口口 |----|
口口口口 |----|
口①口口 |----|
53
口口口口 |①---|
口口①口 |----|
口口②口 |②---|
口口口口 |----|
54
口口口口 |①---|
口口口口 |----|
口口口口 |----|
口口①口 |----|

不確定度: 0

最終更新:2014年12月12日 00:08