ごめんなさいのKissing You
E-Girls

ADVANCED

Level: 5
BPM: 143
Notes: 313

1
口口口口 |----|
口口口口 |----|
口口口口 |----|
口口口口 |----|
2
口②口① |①---|
口口口口 |----|
口口口口 |②---|
口口口口 |----|
3
口口口口 |①---|
②口①口 |----|
口口口口 |②---|
口口口口 |----|
4
口口口口 |①---|
口口口口 |----|
口②口① |②---|
口口口口 |----|
5
口口口口 |①---|
口口口口 |----|
口口口口 |②---|
②口①口 |----|
6
口口口口 |①---|
口口口口 |----|
口②口① |②---|
口口口口 |----|
7
口口口口 |①---|
③②①口 |②---|
④口口口 |③---|
口口口口 |④---|
8
口口口口 |①---|
口口口① |----|
口②口口 |②---|
口口口口 |----|
9
③④口口 |①---|
口②口口 |②---|
口口①口 |③---|
口口口口 |④---|
10
口口①口 |①---|
口②口口 |----|
口口口口 |②---|
口口口口 |----|
11
口口口口 |①---|
口口①口 |②---|
③②口口 |③---|
④口口口 |④---|
12
口口口口 |①---|
②口口口 |----|
口口口① |②---|
口口口口 |----|
13
口口①口 |①---|
口口口口 |②---|
④②口口 |③---|
口口③口 |④---|
14
口口口口 |①---|
口口口口 |----|
口②口① |②---|
口②口① |----|
15
④口口口 |①---|
③②①口 |②---|
口口①口 |③---|
口口口口 |④---|
16
口②口① |①---|
口②口① |----|
口口口口 |②---|
口口口口 |----|
17
口口口口 |①---|
口口①口 |②---|
③②①口 |③---|
④口口口 |④---|
18
口口口① |①---|
②②①口 |----|
口口口口 |②---|
口口口口 |----|
19
口口口口 |①---|
口口口口 |②---|
口④①口 |③---|
口②③口 |④---|
20
口口口① |①---|
②②①口 |----|
口口口口 |②---|
口口口口 |----|
21
口口口口 |①---|
口口③口 |②---|
口②口口 |③---|
口口①口 |----|
22
口口口① |①---|
口②口③ |②---|
口④口口 |③---|
口口口口 |④---|
23
口口口口 |①---|
口口口口 |②---|
②口口口
口口①口

口口口口
④口口口
⑤⑤③口 |③---|
口口口口 |④-⑤-|
24
②②①① |①---|
口口口口 |②-③-|
口口③③
口口口口

口口④④
口口口口
⑤⑤口口 |--④-|
口口口口 |⑤---|
25
①①口口 |①-②-|
口口③③ |--③-|
口口②② |④---|
④④⑤⑤ |⑤---|
26
口口①口 |①---|
②口③口 |②---|
④口口口 |③---|
口口口口 |④---|
27
⑤⑤口口 |①---|
口④口口 |②---|
口②口③ |③---|
口口口① |④-⑤-|
28
口口②② |①---|
口口口口 |②-③-|
③③口口
口口①①

口口口口
④④口口
口口口口 |--④-|
口口⑤⑤ |⑤---|
29
口口①① |①-②-|
④③③④ |----|
④③③④ |③---|
②②口口 |④---|
30
④④口口 |①---|
⑥口③口 |②-③-|
口②⑤⑤ |④---|
口口①① |⑤-⑥-|
31
口口口口 |--①-|
口③④口 |--②-|
口①口口 |--③-|
口口口② |④---|
32
口口口口 |①---|
口口口③ |②-③-|
口②①口
口口①口

④④口口
口口口口
⑤口⑥口 |④---|
口口口口 |⑤-⑥-|
33
口③②口 |--①-|
①⑤④⑥ |②-③-|
口口口口 |④-⑤-|
口口口口 |⑥---|
34
口口③③ |①---|
⑥口⑤口 |②-③-|
口口①① |--④-|
④②口口 |⑤-⑥-|
35
口口口口 |①---|
口口③③ |②-③-|
⑥②⑤口 |--④-|
④口①① |⑤-⑥-|
36
③口口② |①---|
③口口② |②---|
口口口口 |③---|
④④①① |④---|
37
口口③口 |①---|
口口口口 |②-③-|
②①①②
口口口口

口④口口
口⑥⑤口
口口⑦口 |④-⑤-|
口口口口 |⑥-⑦-|
38
④④口口 |①---|
口口③⑥ |②-③-|
口②⑤⑤ |④---|
①①口口 |⑤-⑥-|
39
口口口口 |--①-|
口③④口 |--②-|
口①口口 |--③-|
口口口② |④---|
40
④④口口 |①---|
口口口③ |②-③-|
⑤②⑥口 |④---|
口口①① |⑤-⑥-|
41
口③②口 |--①-|
①⑤④⑥ |②-③-|
口口口口 |④-⑤-|
口口口口 |⑥---|
42
②②②② |①---|
口口口口 |--②-|
①①①①
口口口口

口口口口
口口口口
口④③口 |----|
口口口口 |③-④-|
43
口口口口 |①---|
②②②② |--②-|
④口口③ |----|
①①①① |③-④-|
44
②口口③ |①---|
②口口③ |②---|
口口口口 |③---|
④④①① |④---|
45
口③口口 |①---|
口口口口 |②-③-|
②①①②
口口口口

口口④口
口⑤⑥口
口⑦口口 |④-⑤-|
口口口口 |⑥-⑦-|
46
④口口③ |①---|
口口⑤⑤ |②-③-|
②口口① |--④-|
口口口口 |⑤---|
47
口口口口 |①---|
④口③⑤ |②-③-|
②口⑤① |--④-|
口口口口 |⑤---|
48
口口①口 |①---|
②②①③ |②---|
口口③口 |③---|
④④口口 |④---|
49
口口⑤⑤ |①---|
口口③口 |②-③-|
口②口① |--④-|
口④口口 |⑤---|
50
口口口③ |①---|
口口口① |②-③-|
口②口口
口口口口

口口口口
口口⑤⑤
④口口口 |--④-|
口口口口 |⑤---|
51
口口口口 |①---|
口口口口 |②-③-|
口②①①
口口③③

口口口口
口口口⑤
口口口⑤ |--④-|
口④口口 |⑤---|
52
口口口口 |①---|
④口口③ |②---|
②⑤口口 |③---|
口口口① |④-⑤-|
53
口口口口 |①---|
口②②口 |--②-|
③口口④ |----|
③口①④ |③-④-|
54
口口④③ |①---|
口口③口 |②---|
口口②口 |③---|
口口①口 |④---|
55
②①口口 |①---|
口②口口 |②---|
口③口口 |③---|
口④口口 |④---|

不確定度: 0

最終更新:2014年12月12日 00:08