Resurrection
Dormir

BASIC

Level: 3
BPM: 140
Notes: 204

1
口口口口 |----|
口口口口 |----|
口口口口 |----|
口口口口 |----|
2
①口口口 |①---|
口②口口 |----|
口口口口 |②---|
口口口口 |----|
3
口口口口 |①---|
口口口口 |----|
口口①口 |②---|
口口口② |----|
4
口口口① |①---|
口口②口 |----|
口口口口 |②---|
口口口口 |----|
5
口口口口 |①---|
口口口口 |----|
口①口口 |②---|
②口口口 |----|
6
①口口口 |①---|
口②口口 |----|
口口口口 |②---|
口口口口 |----|
7
口口口口 |①---|
口口口口 |----|
口口①口 |②---|
口口口② |----|
8
口口口① |①---|
口口②口 |----|
口口口口 |②---|
口口口口 |----|
9
口口口口 |①---|
口口口口 |----|
口①口口 |②---|
②口口口 |----|
10
口口口口 |①---|
口口口口 |②---|
口口②② |----|
口口①① |----|
11
①①口口 |①---|
②②口口 |②---|
口口口口 |----|
口口口口 |----|
12
口口①① |①---|
口口②② |②---|
口口口口 |----|
口口口口 |----|
13
口口口口 |①---|
口口口口 |②---|
②②口口 |----|
①①口口 |----|
14
口口②① |①---|
口口②① |②---|
口口口口 |----|
口口口口 |----|
15
口口口口 |①---|
口口口口 |②---|
①②口口 |----|
①②口口 |----|
16
口口口口 |①---|
口口口口 |②---|
口口②① |----|
口口②① |----|
17
①②口口 |①---|
①②口口 |②---|
口口口口 |----|
口口口口 |----|
18
口口④④ |①---|
口口口③ |②---|
口口②口 |③---|
口口口① |④---|
19
④④口口 |①---|
③口口口 |②---|
口②口口 |③---|
①口口口 |④---|
20
口口④④ |①---|
口口③口 |②---|
口口口② |③---|
口口①口 |④---|
21
④④口口 |①---|
口③口口 |②---|
②口口口 |③---|
口①口口 |④---|
22
口口口① |①---|
口口②口 |②---|
口口口③ |③---|
口口④④ |④---|
23
①口口口 |①---|
口②口口 |②---|
③口口口 |③---|
④④口口 |④---|
24
口口①口 |①---|
口口口② |②---|
口口③口 |③---|
口口④④ |④---|
25
口①口口 |①---|
②口口口 |②---|
口③口口 |③---|
④④口口 |④---|
26
②口口② |①---|
口①①口 |②---|
口口口口 |----|
口口口口 |----|
27
口①①口 |①---|
口口口口 |②---|
②口口② |----|
口口口口 |----|
28
口口口口 |①---|
②口口② |②---|
口口口口 |----|
口①①口 |----|
29
①口口① |①---|
口口口口 |②---|
口口口口 |----|
②口口② |----|
30
口口口口 |①---|
口①①口 |②---|
口②②口 |----|
口口口口 |----|
31
口口口口 |①---|
②口口② |②---|
口口口口 |----|
①口口① |----|
32
口①①口 |①---|
口口口口 |②---|
②口口② |----|
口口口口 |----|
33
②口口② |①---|
口口口口 |②---|
口①①口 |----|
口口口口 |----|
34
①口③口 |①---|
口②口④ |②---|
口口口口 |③---|
口口口口 |④---|
35
口口口口 |①---|
口口口口 |②---|
口②口④ |③---|
①口③口 |④---|
36
口②口④ |①---|
①口③口 |②---|
口口口口 |③---|
口口口口 |④---|
37
口口口口 |①---|
口口口口 |②---|
①口③口 |③---|
口②口④ |④---|
38
口口口口 |①---|
①口③口 |②---|
口②口④ |③---|
口口口口 |④---|
39
①口③口 |①---|
口口口口 |②---|
口口口口 |③---|
口②口④ |④---|
40
口①口口 |①---|
口口②口 |②---|
口③口口 |③---|
口口④口 |④---|
41
①口口口 |①---|
口口口② |②---|
③口口口 |③---|
口口口④ |④---|
42
口口口口 |①---|
口口口口 |----|
口①①口 |----|
口口口口 |----|
43
口口口口 |①---|
①口口① |----|
口口口口 |----|
口口口口 |----|
44
口口口口 |①---|
口口口口 |----|
口口口口 |----|
口①①口 |----|
45
①口口① |①---|
口口口口 |----|
口口口口 |----|
口口口口 |----|
46
口口口口 |①---|
口①①口 |----|
口口口口 |----|
口口口口 |----|
47
口口口口 |①---|
口口口口 |----|
①口口① |----|
口口口口 |----|
48
口口口口 |①---|
口口口口 |----|
口口口口 |----|
口①①口 |----|
49
口口口口 |①---|
口①①口 |----|
口口口口 |----|
口口口口 |----|
50
口口口④ |①---|
口口③口 |②---|
口②口口 |③---|
①口口口 |④---|
51
③②①口 |①---|
口口口口 |②---|
口口口口 |③---|
口口④④ |④---|
52
口口口① |①---|
口口②口 |②---|
口③口口 |③---|
④口口口 |④---|
53
④④口口 |①---|
口口口口 |②---|
口口口口 |③---|
口①②③ |④---|
54
口口口④ |①---|
口口③口 |②---|
口②口口 |③---|
①口口口 |④---|
55
④口口口 |①---|
④口口① |②---|
口口口② |③---|
口口口③ |④---|
56
口口口① |①---|
口口②口 |②---|
口③口口 |③---|
④口口口 |④---|
57
③口口口 |①---|
②口口口 |②---|
①口口④ |③---|
口口口④ |④---|

不確定度: 0

最終更新:2014年12月12日 00:03