ポチコの幸せな日常
NU-KO

BASIC

Level: 4
BPM: 192
Notes: 367

1
口口口口 |----|
口口口口 |----|
口口口口 |----|
口口口口 |----|
2
①口口口 |①---|
③口口② |②---|
口口口口 |③---|
口口口④ |④---|
3
口⑤④口 |①---|
口③口口 |②---|
口口②口 |③---|
口①口口 |④-⑤-|
4
口口口口 |----|
口口口① |①---|
口口②口 |②---|
口③④口 |③-④-|
5
口口口口 |----|
口③②口 |①---|
口①口口 |②---|
口口口口 |③---|
6
口口①① |①---|
口口口口 |----|
②②口口 |②---|
口口口口 |----|
7
口口口口 |①---|
①①口口 |----|
口口口口 |②---|
口口②② |----|
8
口口口口 |①---|
口①②口 |②---|
③③④④ |③---|
口口口口 |④---|
9
口口口口 |----|
口口口口 |----|
口口口口 |----|
口口口口 |----|
10
口口口口 |①---|
②口口② |----|
口口口口 |②---|
口①①口 |----|
11
②口口② |①---|
口口③口 |----|
口①①口 |②---|
口口口口 |③---|
12
口口口口 |①---|
口口口口 |②---|
口②口④ |③---|
①口③口 |④---|
13
口口口口 |①---|
口口口口 |②---|
口口②口 |③---|
口③口① |----|
14
①①②② |①---|
口口口口 |----|
口③③口 |②---|
口口口口 |--③-|
15
口口口口 |----|
口口口口 |----|
口口口口 |----|
口口口口 |----|
16
口口口口 |①---|
口①②口 |②---|
③③④④ |③---|
口口口口 |④---|
17
①口口口 |①---|
②口口口 |②---|
③口口口 |③---|
④口口口 |④---|
18
口④④口 |①---|
③口口③ |②---|
口②②口 |③---|
口①①口 |④---|
19
③口口③ |①---|
口口④口 |②---|
②口口② |③---|
①口口① |④---|
20
口口口口 |①---|
口口口口 |②---|
口②口④ |③---|
①口③口 |④---|
21
口口口口 |①---|
口口口口 |②---|
口口②口 |③---|
口③口① |----|
22
①①②② |①---|
口口口口 |----|
口③③口 |②---|
口口口口 |--③-|
23
口口口口 |----|
口口口口 |----|
口口口口 |----|
口口口口 |----|
24
口口口口 |----|
口口口口 |----|
口口口口 |----|
口口口口 |----|
25
②①口口 |①---|
③④口口 |②---|
口口口口 |③---|
口口口口 |④---|
26
③③②口 |①---|
口口①口 |②---|
④④口口 |③---|
口口口口 |④---|
27
口口口口 |①---|
口③②① |②---|
口④口口 |③---|
口口口口 |④---|
28
口口口口 |①---|
④④口口 |②---|
口口①② |③---|
③③口口 |④---|
29
①②③口 |①---|
口口④口 |②---|
口口口口 |③---|
口口口口 |④---|
30
口口④④ |①---|
②①口口 |②---|
口口③③ |③---|
口口口口 |④---|
31
口口口口 |----|
口口口口 |----|
口口口口 |----|
①①口口 |①---|
32
口口口口 |①---|
口④口口 |--②-|
口②③口 |③---|
口口①① |--④-|
33
②⑤⑤③ |①---|
口口①口 |②-③-|
口④④口 |--④-|
口口口口 |--⑤-|
34
口口口口 |----|
口口口口 |----|
口口口口 |----|
口口口口 |----|
35
口口口口 |①-②-|
口口①① |③---|
②②口口 |----|
口口③③ |----|
36
②口口③ |----|
口①①口 |①---|
口①①口 |②---|
口口口口 |③---|
37
口口口口 |①---|
①口口② |②---|
③口口口 |③---|
口口口口 |----|
38
⑤口口口 |①---|
⑤口④口 |②---|
口口③口 |③---|
口口②① |④-⑤-|
39
口④④① |--①-|
口口口① |--②-|
③口口③ |--③-|
口②②口 |--④-|
40
②口口③ |----|
口①①口 |①---|
口①①口 |②---|
口口口口 |③---|
41
口口口口 |①---|
①口口② |②---|
③口口口 |③---|
口口口口 |----|
42
口口口口 |①---|
口④口口 |②---|
口③口口 |③---|
①②口口 |④---|
43
②②①① |①---|
口口口口 |----|
口口口口 |②---|
口口口口 |----|
44
口口口口 |①---|
口口④口 |②---|
口口③口 |③---|
口口②① |④---|
45
①①②② |①---|
口口口口 |----|
口口口口 |②---|
口口口口 |----|
46
①口口口 |①---|
③口口② |②---|
口口口口 |③---|
口口口④ |④---|
47
口⑤④口 |①---|
口③口口 |②---|
口口②口 |③---|
口①口口 |④-⑤-|
48
口口口口 |----|
口口口① |①---|
口口②口 |②---|
口③④口 |③-④-|
49
口口口口 |----|
口③②口 |①---|
口①口口 |②---|
口口口口 |③---|
50
口口①① |①---|
口口口口 |----|
②②口口 |②---|
口口口口 |----|
51
口口口口 |①---|
①①口口 |----|
口口口口 |②---|
口口②② |----|
52
①②③④ |①---|
口口口口 |②---|
口口口口 |③---|
口口口口 |④---|
53
口口口口 |①---|
④③②① |②---|
口口口口 |③---|
口口口口 |④---|
54
口口口口 |①---|
口口口口 |②---|
①②③④ |③---|
口口口口 |④---|
55
口口口口 |①---|
口口口口 |②---|
口口口口 |③---|
④③②① |④---|
56
口口口① |①---|
口口口② |②---|
口口口③ |③---|
口口口④ |④---|
57
口口④口 |①---|
口口③口 |②---|
口口②口 |③---|
口口①口 |④---|
58
口①口口 |①---|
口②口口 |②---|
口③口口 |③---|
口④口口 |④---|
59
④口口口 |①---|
③口口口 |②---|
②口口口 |③---|
①口口口 |④---|
60
口口口口 |①---|
口②②口 |----|
口①①口 |②---|
口口口口 |----|
61
②①①② |①---|
口口口口 |----|
口口口口 |②---|
口口口口 |----|
62
口口口口 |①---|
口口口口 |----|
②口口② |②---|
①口口① |----|
63
口②②口 |①---|
①口口① |----|
口口口口 |②---|
口口口口 |----|
64
口口口口 |①---|
口①口口 |----|
口口②口 |②---|
口口口口 |----|
65
口口口口 |①---|
口口口口 |----|
口口口口 |----|
口①口口 |----|
66
口口口口 |①---|
口口①口 |----|
口②口口 |②---|
口口口口 |----|
67
口口口口 |①---|
口口口口 |----|
口口口口 |②---|
口②①口 |----|
68
口口口口 |①---|
口口口口 |----|
口口①口 |----|
口口口口 |----|
69
口口口口 |①-②-|
④口①① |③---|
②②口口 |④---|
口口③③ |----|
70
口口口① |①---|
口②口口 |----|
口口口口 |②---|
口口口口 |----|
71
口口口口 |①---|
口口口口 |----|
口口①口 |②---|
口②口口 |----|
72
口口口① |①---|
口口口② |----|
口口口口 |②---|
口口口口 |----|
73
口口口口 |①---|
口口口口 |----|
口口口① |②---|
②口口口 |----|
74
口口②口 |①---|
①①口口 |----|
口口口口 |②---|
口口口口 |----|
75
口口口口 |①---|
口①口口 |----|
口口②口 |②---|
口口口口 |----|
76
口口口口 |①---|
口口口口 |----|
口口口口 |②---|
口②①口 |----|
77
②口口③ |①---|
①口口① |----|
口①①口 |②---|
口口口口 |③---|
78
口口口口 |①---|
①口口② |②---|
③口口口 |③---|
口口口口 |----|
79
⑤口口口 |①---|
⑤口④口 |②---|
口口③口 |③---|
口口②① |④-⑤-|
80
口④④① |--①-|
口口口① |--②-|
③口口③ |--③-|
口②②口 |--④-|
81
②口口③ |----|
口①①口 |①---|
口①①口 |②---|
口口口口 |③---|
82
口口口口 |①---|
①口口② |②---|
③口口口 |③---|
口口口口 |----|
83
口口口口 |①---|
口口口口 |②---|
口③口口 |③---|
①②口口 |----|
84
口口口口 |①---|
口口口口 |②---|
口口③口 |③---|
口口②① |----|
85
口口口口 |①---|
口口④口 |②---|
口③口口 |③---|
①口②口 |④---|
86
①①口口 |①---|
口口口口 |----|
口口口口 |----|
口口口口 |----|
87
口口口口 |①---|
口口口口 |----|
口口①① |----|
口口口口 |----|
88
①口口口 |①---|
③口口② |②---|
口口口口 |③---|
口口口④ |④---|
89
口⑤④口 |①---|
口③口口 |②---|
口口②口 |③---|
口①口口 |④-⑤-|
90
口口口口 |----|
口口口① |①---|
口口②口 |②---|
口③④口 |③-④-|
91
口④③口 |----|
口②口口 |①---|
①口口口 |②---|
口口口口 |③-④-|
92
口口口口 |----|
①口口口 |①---|
口②口口 |②---|
口④③口 |③-④-|
93
口④③口 |--①-|
②口口① |②---|
口口⑤口 |③-④-|
口口口口 |--⑤-|
94
口口口口 |①---|
口②②口 |②-③-|
口①口口 |----|
③口口③ |----|

不確定度: 0

最終更新:2014年12月11日 23:59