猫侍の逆襲
猫叉Master

BASIC

Level: 3
BPM: 152
Notes: 254

1
口口口口 |----|
口口口口 |----|
口口口口 |----|
口口口口 |----|
2
口口口口 |----|
口口口口 |----|
口口口口 |----|
口口口口 |----|
3
口口口口 |①---|
口①①口 |----|
口①①口 |----|
口口口口 |----|
4
②口口② |----|
口口口口 |----|
口口口口 |①---|
①口口① |②---|
5
口口口口 |①---|
口①①口 |----|
口①①口 |----|
口口口口 |----|
6
口口口口 |①---|
②口口② |----|
口口口口 |②---|
①口口① |----|
7
口口口口 |①---|
口①①口 |----|
口①①口 |----|
口口口口 |----|
8
口口口口 |----|
口口口口 |----|
②口口② |①---|
①口口① |②---|
9
①②④③ |①---|
口口口口 |②---|
口口口口 |③---|
口口口口 |④---|
10
口口口口 |①---|
①②④③ |②---|
口口口口 |③---|
口口口口 |④---|
11
口口口口 |①---|
口口口口 |②---|
①②④③ |③---|
口口口口 |④---|
12
口口口口 |①---|
口口口口 |----|
口口口口 |----|
口①①口 |----|
13
口口口口 |----|
口口口口 |----|
口口口口 |----|
口口口口 |----|
14
口口口口 |①---|
①口口口 |----|
口口口口 |----|
口口口口 |----|
15
口口口口 |①---|
口口口① |----|
口口口口 |----|
口口口口 |----|
16
口口口口 |①---|
口口口口 |----|
口①①口 |----|
口口口口 |----|
17
口口口口 |----|
口口口口 |----|
口口口口 |----|
口口口口 |----|
18
口口口口 |①---|
口口口① |----|
口口口口 |----|
口口口口 |----|
19
口口口口 |①---|
①口口口 |----|
口口口② |②---|
口口口口 |----|
20
口口口口 |①---|
口口口口 |----|
口②口口 |②---|
口①口口 |----|
21
①口口口 |①---|
②口口口 |----|
口口口口 |②---|
口口口口 |----|
22
口口口口 |①---|
口①①口 |----|
口口口口 |----|
口口口口 |----|
23
口口口口 |----|
口口口口 |----|
口口口口 |----|
口口口口 |----|
24
口口口口 |①---|
口口口口 |----|
口口②口 |②---|
口口①口 |----|
25
口口口① |①---|
口口口② |----|
口口口口 |②---|
口口口口 |----|
26
口口口口 |①---|
口①①口 |----|
口口口口 |----|
口口口口 |----|
27
口口口口 |①---|
口口口口 |----|
口①①口 |②---|
口②②口 |----|
28
口口口口 |①---|
①口口② |----|
①口口② |----|
口口口口 |②---|
29
口口口口 |----|
口①①口 |----|
口②②口 |①---|
口口口口 |②---|
30
口口口口 |①---|
①口口② |----|
①口口② |----|
口口口口 |②---|
31
口口口口 |----|
口②②口 |----|
口①①口 |①---|
口口口口 |②---|
32
口口口口 |①---|
①口口② |----|
①口口② |----|
口口口口 |②---|
33
口口口口 |----|
口①①口 |----|
口②②口 |①---|
口口口口 |②---|
34
口口口口 |①---|
①口口② |----|
①口口② |----|
口口口口 |②---|
35
口口口口 |----|
口②②口 |----|
口①①口 |①---|
口口口口 |②---|
36
①口口① |①---|
口口口口 |----|
口口口口 |----|
②口口② |②---|
37
口口口口 |----|
口②①口 |----|
口②①口 |①---|
口口口口 |②---|
38
②口口② |①---|
口口口口 |----|
口口口口 |----|
①口口① |②---|
39
口口口口 |----|
口①②口 |----|
口①②口 |①---|
口口口口 |②---|
40
①口口① |①---|
口口口口 |----|
口口口口 |----|
②口口② |②---|
41
口口口口 |----|
口②①口 |----|
口②①口 |①---|
口口口口 |②---|
42
①口口① |①---|
口口口口 |----|
口口口口 |----|
②口口② |②---|
43
口口口口 |----|
口②②口 |----|
口①①口 |①---|
口口口口 |②---|
44
①②口口 |①---|
口口④③ |②---|
口口口口 |③---|
口口口口 |④---|
45
口口口口 |①---|
口口口口 |②---|
①②口口 |③---|
口口④③ |④---|
46
口口口口 |----|
①口口口 |①---|
口口②口 |②---|
口③口口 |③---|
47
口口口口 |①---|
口口口口 |----|
口口口口 |②---|
②②①① |----|
48
口口口② |①---|
口口③口 |②---|
口④口① |③---|
口口口口 |④---|
49
③口口口 |①---|
②④口口 |②---|
①口口口 |③---|
口口口口 |④---|
50
口口口口 |①---|
②②口口 |----|
口口①① |②---|
口口口口 |----|
51
口口口口 |①---|
口口②② |----|
①①口口 |②---|
口口口口 |----|
52
口口口③ |①---|
口口口口 |----|
口②②口 |②---|
口①①口 |③---|
53
①②口口 |①---|
口口④③ |②---|
口口口口 |③---|
口口口口 |④---|
54
口口口口 |①---|
口口口口 |②---|
①②口口 |③---|
口口④③ |④---|
55
口口口口 |----|
①口口口 |①---|
口口②口 |②---|
口③口口 |③---|
56
口口口口 |①---|
口口口口 |----|
口口口口 |②---|
②②①① |----|
57
口口口② |①---|
口口③口 |②---|
口④口① |③---|
口口口口 |④---|
58
③口口口 |①---|
②④口口 |②---|
①口口口 |③---|
口口口口 |④---|
59
口口口口 |①---|
②②口口 |----|
口口①① |②---|
口口口口 |----|
60
口口口口 |①---|
口口②② |----|
①①口口 |②---|
口口口口 |----|
61
口①①口 |①---|
口口口口 |----|
口②②口 |----|
口口口口 |②---|
62
口①①口 |①---|
口口口口 |----|
口口口口 |----|
口口口口 |----|
63
口口口④ |①---|
口口③口 |②---|
口②口口 |③---|
①口口口 |④---|
64
④口口口 |①---|
口③口口 |②---|
口口②口 |③---|
口口口① |④---|
65
口①①口 |①---|
口口口② |----|
口口③口 |②---|
口口口口 |③---|
66
④口口口 |①---|
③口口口 |②---|
②口口口 |③---|
①口口口 |④---|
67
口④口口 |①---|
口③口口 |②---|
口②口口 |③---|
①①口口 |④---|
68
口口④口 |①---|
口口③口 |②---|
口口②口 |③---|
①①①口 |④---|
69
口口口④ |①---|
口口口③ |②---|
口口口② |③---|
①①①① |④---|
70
口①①口 |①---|
口③③口 |----|
口②②口 |②---|
口口口口 |③---|
71
口口口口 |----|
口口口口 |①---|
③口口③ |②---|
②①①② |③---|
72
口③③口 |①---|
①口口① |----|
口口口口 |②---|
②口口② |③---|
73
口口口口 |----|
口口口口 |①---|
①①①① |----|
口口口口 |----|

不確定度: 0

最終更新:2014年12月11日 23:57