猫侍の逆襲
猫叉Master

ADVANCED

Level: 7
BPM: 152
Notes: 496

1
口口口口 |----|
口口口口 |----|
口口口口 |----|
口口口口 |----|
2
口口口口 |----|
口口口口 |----|
口口口口 |----|
口口口口 |----|
3
⑧口口④ |①-②-|
口⑦③口 |③-④-|
口②⑥口 |⑤-⑥-|
口①①⑤ |⑦-⑧-|
4
口⑤①口 |①-②-|
②口⑥口 |③-④-|
口⑦口③ |⑤-⑥-|
④口⑧口 |⑦-⑧-|
5
③口口⑦ |--①-|
口②⑥口 |②-③-|
口⑤①口 |④-⑤-|
④口口口 |⑥-⑦-|
6
口①②口 |①-②-|
⑦口口⑦ |③-④-|
⑥口④⑥ |⑤-⑥-|
⑤③口⑤ |⑦---|
7
⑧口口④ |①-②-|
口⑦③口 |③-④-|
口②⑥口 |⑤-⑥-|
口①①⑤ |⑦-⑧-|
8
口④①口 |①-②-|
②口⑤口 |③-④-|
口⑥口口 |⑤-⑥-|
⑧口⑦③ |⑦-⑧-|
9
③③①① |①---|
口口口口 |②---|
④④②② |③---|
口口口口 |④---|
10
口口口口 |①---|
口①①口 |----|
口口口口 |----|
口②②口 |②---|
11
口口口口 |①---|
口①①口 |----|
②口口② |②---|
口③③口 |③---|
12
口②口口 |①---|
口①①口 |----|
口口口口 |②---|
口口口口 |----|
13
口口①② |①---|
口口口口 |----|
口口口口 |②---|
口口口口 |----|
14
口口口口 |----|
③口口口 |①---|
口②口口 |②---|
口口①口 |③---|
15
口口③口 |①---|
口②口④ |②---|
①口口口 |③---|
口口口口 |④---|
16
口口②口 |①---|
口口口口 |----|
口口口口 |②---|
口①①口 |----|
17
②①口口 |①---|
口口口口 |----|
口口口口 |②---|
口口口口 |----|
18
口口③口 |----|
口口口② |①---|
口口①口 |②---|
口口口口 |③---|
19
①口口② |①---|
口③口口 |②---|
口口④口 |③---|
口口口口 |④---|
20
口口口⑤ |①---|
②③④口 |②-③-|
⑥口口⑦ |④-⑤-|
口①①口 |⑥-⑦-|
21
⑤口口⑥ |①---|
口④③② |②-③-|
口口口口 |④-⑤-|
⑦①①口 |⑥-⑦-|
22
口口③口 |①-②-|
②口口口 |③---|
口口①口 |----|
口口口口 |----|
23
口口口口 |--①-|
④⑤⑥⑦ |②-③-|
口③②① |④-⑤-|
口口口口 |⑥-⑦-|
24
⑥口口⑤ |①---|
口口口口 |②-③-|
②③④⑦ |④-⑤-|
口①①口 |⑥-⑦-|
25
⑥口口⑤ |①---|
口④③② |②-③-|
口口口口 |④-⑤-|
口①①⑦ |⑥-⑦-|
26
口口①口 |①-②-|
口口口口 |③---|
②口口口 |----|
④口③口 |--④-|
27
口②③口 |①-②-|
①⑥⑧④ |③-④-|
口口口口 |⑤-⑥-|
口⑦口⑤ |⑦-⑧-|
28
口口口口 |①--②|
口口口口 |--③-|
口①①③
口口②口

口口④口
口口口口
口⑤⑤口 |④---|
口⑥口口 |⑤--⑥|
29
③②口④ |--①-|
⑤⑦⑧⑥ |②---|
①⑨⑩口 |③④⑤⑥|
口口口口 |⑦⑧⑨⑩|
30
口口口口 |①--②|
口口口口 |--③-|
口口口③
②①口口

口口④口
口口口口
口⑤⑤口 |④---|
口⑥口口 |⑤--⑥|
31
③②口③ |--①-|
④口口④ |②---|
①口口口 |③---|
口口口口 |④---|
32
口口口口 |①--②|
口口口口 |--③-|
口①①③
口口②口

口口④口
口口口口
口⑤⑤口 |④---|
口⑥口口 |⑤--⑥|
33
③②口④ |--①-|
⑤口⑥口 |②---|
①⑦⑧口 |③-④-⑤-|
口口口口 |⑥-⑦-⑧-|
34
口口④口 |①--②|
口口口口 |--③-|
口⑤⑤③ |④---|
①⑥②口 |⑤--⑥|
35
③②口③ |--①-|
口口口口 |②---|
①口口口 |③---|
④口口④ |④---|
36
口口口口 |①-②-|
口①②口 |③-④-|
口③④口
口口口口

⑤口口⑥
口⑦⑧口
口口口口 |⑤-⑥-|
口口口口 |⑦-⑧-|
37
③⑤⑥④ |①-②-|
口口口口 |③-④-|
口①②口 |⑤-⑥-|
⑦口口⑧ |⑦-⑧-|
38
⑬⑭⑮⑯ |①②③④|
⑤⑥⑦⑧ |⑤⑥⑦⑧|
①②③④ |⑨⑩⑪⑫|
⑨⑩⑪⑫ |⑬⑭⑮⑯|
39
口口口口 |①②③④|
⑤⑥⑦⑧ |⑤⑥⑦⑧|
①②③④ |⑨---|
⑨口口口 |----|
40
⑤口口① |--①-|
口口口口 |--②③|
口②③④ |④---|
口口口口 |---⑤|
41
口口口口 |----①-|
口口①口 |②-③-④-|
口②口口 |----|
口④③口 |----|
42
④口口③ |①--②|
⑤②①⑥ |--③-|
⑥①②⑤ |④---|
③口口④ |⑤--⑥|
43
④①②③ |--①-|
口④③口 |②---|
口③④口 |③---|
③②①④ |④---|
44
③②②口 |①---|
口④口口 |②---|
①口⑤① |③-④-|
口口口⑥ |⑤-⑥-|
45
口⑤口④ |①-②-|
③口口口 |③-④-|
⑨⑧⑦⑥ |⑤--⑥⑦⑧|
①口②口 |⑨---|
46
③口口④ |--①-|
口口口② |②-③-|
⑤⑥⑦⑧ |④--⑤⑥⑦|
①⑨口口 |⑧-⑨-|
47
口口口口 |①---|
⑤④③② |---②③④|
口口口口 |⑤---|
口⑥⑥① |⑥---|
48
②口③① |①---|
④口口口 |②---|
口①②⑤ |③-④-|
①⑥口② |⑤-⑥-|
49
口口口④ |①-②-|
口口③口 |③-④-|
口口②口
口口①口

⑤⑤口口
⑩口口口
⑩口口口 |⑤--⑥⑦⑧|
⑥⑦⑧⑨ |⑨-⑩-|
50
口②②口 |①---|
口③口① |②---|
口口④① |③-④-|
口⑤⑥口 |⑤-⑥-|
51
①口口口 |①---|
口口口口 |----|
口口口口 |----|
②口口② |②---|
52
口①①④ |①---|
⑤口口② |----|
口口⑥口 |②-③-|
⑦③口口 |④⑤⑥⑦|
53
口②②口 |①---|
口口口口 |②---|
口口口口
口口口①

③口口口
口④口口
口口⑤口 |③-④-|
口口口⑥ |⑤-⑥-|
54
口⑤口④ |①-②-|
③口口口 |③-④-|
⑨⑧⑦⑥ |⑤--⑥⑦⑧|
①口②口 |⑨---|
55
③口口④ |--①-|
口口口② |②-③-|
⑤⑥⑦⑧ |④--⑤⑥⑦|
①⑨口口 |⑧-⑨-|
56
口口口口 |①---|
⑤④③② |---②③④|
口口口口 |⑤---|
口⑥⑥① |⑥---|
57
②口③① |①---|
④口口口 |②---|
口①②⑤ |③-④-|
①⑥口② |⑤-⑥-|
58
口口口④ |①-②-|
口口③口 |③-④-|
口口②口
口口①口

⑤⑤口口
⑩口口口
⑩口口口 |⑤--⑥⑦⑧|
⑥⑦⑧⑨ |⑨-⑩-|
59
口②②口 |①---|
口③③① |②---|
口口口① |③---|
口④④口 |④---|
60
①口口① |①---|
口口口口 |----|
口口口口 |----|
②口口② |②---|
61
口①①口 |①---|
口口口口 |----|
口口口口 |----|
②口口② |②---|
62
口①①口 |①---|
口②口口 |----|
口口口口 |②---|
口口口口 |----|
63
口口口口 |①---|
口口①② |----|
口口口口 |②---|
口口口口 |----|
64
口口口口 |----|
口③口口 |①---|
口口②口 |②---|
口口口① |③---|
65
①口口② |①---|
口口③口 |②---|
口④口口 |③---|
口口口口 |④---|
66
口口口口 |①---|
口②口口 |----|
口口口口 |②---|
①口口口 |----|
67
口口口口 |①---|
口口①② |----|
口口口口 |②---|
口口口口 |----|
68
口口口口 |----|
口③口口 |①---|
口口②口 |②---|
口口口① |③---|
69
①口③② |①---|
口口口口 |②---|
口④口口 |③---|
口口口口 |④---|
70
①⑤⑤① |①--②|
口③④口 |--③-|
口④③口 |④---|
②⑥⑥② |⑤--⑥|
71
④口口④ |--①-|
②④④① |②---|
①③③② |③---|
③口口③ |④---|
72
口①①口 |①--②|
口口口③ |--③-|
③口口口
口②②口

⑤⑤⑤⑤
④口口口
口口口④ |④---|
⑥⑥⑥⑥ |⑤--⑥|
73
口口口口 |--①-|
②②①① |②---|
①①②② |----|
口口口口 |----|

不確定度: 0

最終更新:2014年12月11日 23:56