乙女の真骨頂
乙女の純情

BASIC

Level: 3
BPM: 180
Notes: 230

1
口口口口 |----|
口口口口 |----|
口口口口 |----|
口口口口 |----|
2
口口口口 |①---|
口①①口 |----|
口①①口 |----|
口口口口 |----|
3
口口口口 |----|
口口口口 |----|
口口口口 |----|
口口口口 |----|
4
口口口口 |①---|
口①①口 |----|
口①①口 |----|
口口口口 |----|
5
口口口口 |----|
口口口口 |①---|
②口口② |--②-|
①口口① |----|
6
口口口口 |①---|
①②口① |----|
口口口口 |②---|
口口口口 |----|
7
口口口口 |①---|
口口①② |----|
口口口口 |②---|
口口口口 |----|
8
口口口口 |①---|
口口口口 |----|
①②口① |②---|
口口口口 |----|
9
口口口口 |①---|
口口口口 |----|
口口①② |②---|
口口口口 |----|
10
口口口口 |①---|
口口口口 |----|
口口口口 |②---|
①②口① |----|
11
口口口口 |①---|
口口口口 |----|
口口口口 |②---|
口口①② |----|
12
口口口口 |①---|
②口口② |----|
①口口① |②---|
口口口口 |----|
13
②②②② |①---|
口①①口 |----|
口口口口 |②---|
口口口口 |----|
14
口口口口 |①---|
口口口口 |----|
①口口口 |----|
口口口口 |----|
15
口口口口 |①---|
口口口口 |----|
口口①口 |----|
口口口口 |----|
16
口口口口 |①---|
口口口口 |----|
口①口口 |----|
口口口口 |----|
17
口口口口 |①---|
口口口口 |----|
口口口① |----|
口口口口 |----|
18
口口口口 |①---|
口口①口 |----|
口口口口 |----|
口口口口 |----|
19
口口口口 |①---|
①口口口 |----|
口口口口 |----|
口口口口 |----|
20
口①①口 |①---|
口②②口 |----|
口口口口 |②---|
口口口口 |----|
21
口口口口 |①---|
口口口口 |----|
①口口① |②---|
②口口② |----|
22
①②口口 |①---|
口口③④ |②---|
口口口口 |③---|
口口口口 |④---|
23
口口口口 |①---|
口口口口 |②---|
①②口口 |③---|
口口③④ |④---|
24
口口口口 |①---|
口口口口 |②---|
口口③④ |③---|
①②口口 |④---|
25
口口口口 |①---|
①②口口 |②---|
口口③④ |③---|
口口口口 |④---|
26
口口口口 |①---|
口口口口 |②---|
口口③④ |③---|
①②口口 |④---|
27
口口③④ |①---|
①②口口 |②---|
口口口口 |③---|
口口口口 |④---|
28
口口口口 |①---|
①口口① |----|
②口口② |②---|
口口口口 |----|
29
口口口口 |①---|
口①①口 |----|
口口口口 |②---|
口②②口 |----|
30
①口口口 |①---|
口口口口 |----|
口口口口 |----|
口口口口 |----|
31
口口口口 |①---|
口口口口 |----|
①口口口 |----|
口口口口 |----|
32
口①口口 |①---|
口口口口 |----|
口口口口 |----|
口口口口 |----|
33
口口口口 |①---|
口口口口 |----|
口①口口 |----|
口口口口 |----|
34
口口①口 |①---|
口口口口 |----|
口口口口 |----|
口口口口 |----|
35
口口口口 |①---|
口口口口 |----|
口口①口 |----|
口口口口 |----|
36
口口口① |①---|
口口口口 |----|
口口口口 |----|
口口口口 |----|
37
口口口口 |①---|
口口口口 |----|
口口口① |----|
口口口口 |----|
38
口口口口 |①---|
口②②口 |----|
口口口口 |②---|
口①①口 |----|
39
③口口③ |①---|
②口口② |②---|
①口口① |③---|
口口口口 |----|
40
口①口口 |①---|
口③②口 |②---|
口口④口 |③---|
口口口口 |④---|
41
口口口口 |①---|
口口口口 |----|
①口口① |----|
口口口口 |----|
42
口口口口 |①---|
②②口口 |----|
口口口口 |②---|
口①①口 |----|
43
口口口口 |①---|
口口②② |----|
口口口口 |②---|
口①①口 |----|
44
口口口口 |①---|
口口口口 |----|
①口口① |----|
口口口口 |----|
45
口口口口 |--①-|
口口口口 |--②-|
口口口口 |----|
口①②口 |----|
46
②②口口 |①---|
口①①口 |----|
口①①口 |②---|
口口口口 |----|
47
口口口口 |①---|
口口口口 |②---|
口口口口 |③---|
口①②③ |----|
48
②②口口 |①---|
口①①口 |----|
口①①口 |②---|
口口口口 |----|
49
口口口口 |①---|
口口口口 |②---|
口口口口 |③---|
口①②③ |----|
50
口口口口 |①---|
①口②口 |----|
①口②口 |②---|
口口口口 |----|
51
口口口口 |①---|
口①口② |----|
口①口② |②---|
口口口口 |----|
52
口口口口 |①---|
口①口口 |②---|
口③②口 |③---|
口口④口 |④---|
53
口口口口 |①---|
①口口① |②---|
③口口③ |----|
②口口② |③---|
54
②②口口 |①---|
口①①口 |----|
口①①口 |②---|
口口口口 |----|
55
口口口口 |①---|
口口口口 |②---|
④口口④ |③---|
口①②③ |④---|
56
②②口口 |①---|
口①①口 |----|
口①①口 |②---|
口口口口 |----|
57
口口口口 |①---|
口口口口 |②---|
口口口口 |③---|
口①②③ |----|
58
口口口口 |①---|
①口②口 |----|
①口②口 |②---|
口口口口 |----|
59
口口口口 |①---|
口①口② |----|
口①口② |②---|
口口口口 |----|
60
口口口口 |①---|
口①口口 |②---|
口③②口 |③---|
口口④口 |④---|
61
口口口口 |①---|
①口口① |----|
②口口② |②---|
口口口口 |----|
62
口口口口 |①---|
口口口口 |----|
口口口口 |----|
①口口① |----|
63
口口口口 |①---|
口①②口 |②---|
口③④口 |③---|
口口口口 |④---|
64
口口口口 |①---|
口口口口 |----|
口口口口 |②---|
①②口① |----|
65
口口口口 |①---|
口②口④ |②---|
①口③口 |③---|
口口口口 |④---|
66
口口口口 |①---|
口口口口 |----|
①口口① |②---|
口②口口 |----|
67
口口口口 |①---|
口②口④ |②---|
①口③口 |③---|
口口口口 |④---|
68
①口口① |①---|
口口口口 |----|
口②口口 |②---|
口口口口 |----|
69
口②口④ |①---|
①口③口 |②---|
口口口口 |③---|
口口口口 |④---|
70
口口口口 |①---|
①②②① |----|
口口口口 |②---|
口口口口 |----|
71
①②②① |①---|
口口口口 |----|
口口口口 |②---|
口口口口 |----|
72
口口口口 |①---|
口①①口 |----|
口①①口 |----|
口口口口 |----|

不確定度: 0

最終更新:2014年12月11日 23:55