passionate fate
Ryu☆

BASIC

Level: 3
BPM: 149
Notes: 293

1
口口口口 |----|
口口口口 |----|
口口口口 |----|
口口口口 |----|
2
口口口口 |----|
口口口口 |----|
口口口口 |----|
口口口口 |----|
3
口口口口 |----|
口口口口 |----|
口口口口 |----|
口口口口 |----|
4
口口口口 |①---|
口①口口 |----|
口口②口 |②---|
口口口口 |----|
5
口口口口 |①---|
口口口口 |----|
口口口口 |②---|
①②口口 |----|
6
口口口口 |①---|
口口口口 |----|
口口口口 |②---|
口口①② |----|
7
口口口口 |①---|
口口口口 |----|
口口口口 |②---|
①②口口 |----|
8
口口口口 |①---|
口①口口 |----|
口口②口 |②---|
口口口口 |----|
9
口口口口 |①---|
口口口口 |----|
口口②口 |②---|
口①口口 |----|
10
口口口④ |①---|
口口③口 |②---|
口②口口 |③---|
①口口口 |④---|
11
口口口口 |----|
①①②② |----|
口口口口 |①---|
口口口口 |②---|
12
口②②口 |①---|
口口口口 |----|
口①①口 |②---|
口口口口 |----|
13
②口口② |①---|
③①①③ |----|
口口口口 |②---|
口口口口 |③---|
14
口口口口 |①---|
口口口口 |----|
①口口① |②---|
口②口口 |----|
15
口口口口 |①---|
②②③③ |----|
口口口口 |②---|
口口①口 |③---|
16
口②②口 |①---|
口口口口 |----|
口①①口 |②---|
口口口口 |----|
17
②口口② |①---|
③①①③ |----|
口口口口 |②---|
口口口口 |③---|
18
口口口口 |①---|
③③③③ |----|
①口口① |②---|
口②②口 |--③-|
19
口口口口 |----|
口口口口 |----|
①口口② |①---|
口口口口 |②---|
20
①②口口 |①---|
口口④③ |②---|
口口口口 |③---|
口口口口 |④---|
21
口口口口 |①---|
口口口口 |②---|
①②口口 |③---|
口口④③ |④---|
22
口口口口 |①---|
口①①口 |----|
口②②口 |②---|
口口口口 |----|
23
口口口口 |①---|
③口口② |----|
口口口口 |②---|
口①①口 |③---|
24
口口①① |①---|
口口口口 |----|
②②口口 |②---|
口口口口 |----|
25
口口口口 |①---|
口口①① |----|
口口口口 |②---|
②②口口 |----|
26
③③③③ |①---|
②①①② |----|
②①①② |②---|
口口口口 |--③-|
27
口口口口 |----|
口口口口 |----|
口口口口 |----|
口口口口 |----|
28
口②口口 |①---|
①口口口 |----|
口口口口 |②---|
口口口口 |----|
29
口口口口 |①---|
口口①口 |②---|
口口口② |③---|
口口③口 |----|
30
口口口口 |①---|
口口口口 |----|
口口②口 |②---|
口口口① |----|
31
口③④口 |①---|
②口口口 |②---|
口①口口 |③---|
口口口口 |④---|
32
①口口口 |①---|
口②口口 |----|
口口口口 |②---|
口口口口 |----|
33
口口③口 |①---|
口口口② |②---|
口口①口 |③---|
口口口口 |----|
34
口口口口 |①---|
口口口口 |----|
口口口① |②---|
口口②口 |----|
35
②口口② |①---|
口①①口 |----|
口口口口 |②---|
③口口③ |--③-|
36
口口口口 |----|
①①②② |----|
口口口口 |①---|
口口口口 |②---|
37
口②②口 |①---|
口口口口 |----|
口①①口 |②---|
口口口口 |----|
38
②口口② |①---|
③①①③ |----|
口口口口 |②---|
口口口口 |③---|
39
口口口口 |①---|
口口口口 |----|
①口口① |②---|
口②口口 |----|
40
口口口口 |①---|
②②③③ |----|
口口口口 |②---|
口口①口 |③---|
41
口②②口 |①---|
口口口口 |----|
口①①口 |②---|
口口口口 |----|
42
②口口② |①---|
③①①③ |----|
口口口口 |②---|
口口口口 |③---|
43
口口口口 |①---|
③③③③ |----|
①口口① |②---|
口②②口 |--③-|
44
口口口口 |----|
口口口口 |----|
口口口口 |----|
口口口口 |----|
45
③③①① |①---|
口口口口 |②---|
④④②② |③---|
口口口口 |④---|
46
口口口口 |①---|
③①①③ |②---|
口口口口 |③---|
④②②④ |④---|
47
③③①① |①---|
口口口口 |②---|
④④②② |③---|
口口口口 |④---|
48
口口口口 |①---|
③①①③ |②---|
口口口口 |③---|
④②②④ |④---|
49
③③①① |①---|
口口口口 |②---|
④④②② |③---|
口口口口 |④---|
50
口口口口 |①---|
③①①③ |②---|
口口口口 |③---|
④②②④ |④---|
51
③③①① |①---|
口口口口 |②---|
④④②② |③---|
口口口口 |④---|
52
口口口口 |①---|
口①①口 |----|
口口③口 |②---|
口②口口 |③---|
53
①口口② |①---|
①口口② |----|
口口口口 |②---|
口口口口 |----|
54
口①①口 |①---|
口口②口 |----|
口口口口 |②---|
口口口口 |----|
55
口口口口 |①---|
口②口口 |----|
口①口口 |②---|
口口口口 |----|
56
口口口口 |①---|
口②③口 |----|
口口①口 |②---|
口口口口 |③---|
57
口口口口 |①---|
口口口口 |----|
①口口② |②---|
口口口口 |----|
58
口口口口 |①---|
口②②口 |----|
口口口口 |②---|
口①①口 |----|
59
③③③③ |①---|
口②②口 |----|
①口口① |②---|
口口口口 |--③-|
60
口口口口 |----|
①①②② |----|
口口口口 |①---|
口口口口 |②---|
61
②口口④ |①---|
口口口口 |②---|
③①①③ |③---|
口口口口 |④---|
62
口口②口 |①---|
口①①口 |②---|
口③口口 |③---|
口口④口 |④---|
63
口口口口 |①---|
口③③口 |②---|
口④④② |③---|
口①口口 |④---|
64
口口口口 |①---|
②②③③ |----|
口口口口 |②---|
①口口① |③---|
65
②口口④ |①---|
口口口口 |②---|
③①①③ |③---|
口口口口 |④---|
66
口口②口 |①---|
口①①口 |②---|
口③口口 |③---|
口口④口 |④---|
67
④④④④ |①---|
③①①③ |----|
口口口口 |②--③|
②口口② |--④-|
68
口口口口 |----|
口口口口 |----|
口口口口 |----|
口口口口 |----|
69
口口口口 |①---|
口口①口 |----|
口口口口 |----|
口口口口 |----|

不確定度: 0

最終更新:2014年12月11日 23:55