乙女の真骨頂
乙女の純情

ADVANCED

Level: 7
BPM: 180
Notes: 441

1
口口口口 |----|
口口口口 |----|
口口口口 |----|
口口口口 |----|
2
口①②口 |①-②-|
口③④口 |③-④-|
⑤口口⑥ |⑤-⑥-|
⑦口口⑧ |⑦-⑧-|
3
口口口口 |----|
口口口口 |----|
口口口口 |----|
口口口口 |----|
4
口①②口 |①-②-|
口③④口 |③-④-|
⑤口口⑥ |⑤-⑥-|
⑦口口⑧ |⑦-⑧-|
5
口口口口 |----|
口②②口 |①---|
口口口口 |--②-|
口①①口 |----|
6
①口口① |①---|
⑤口口口 |②---|
②口③口 |③-④-|
口④口口 |--⑤-|
7
口口①口 |--①-|
口②口④ |②-③-|
③口⑤口 |④-⑤-|
口⑥口口 |⑥---|
8
①口口口 |①---|
⑤口口口 |②---|
②口③口 |③-④-|
口④口口 |--⑤-|
9
口口①口 |--①-|
口②⑥口 |②-③-|
③⑦④口 |④-⑤-|
口⑤口口 |⑥-⑦-|
10
①口口① |①---|
⑤口口口 |②---|
②口③口 |③-④-|
口④口口 |--⑤-|
11
口口①口 |--①-|
口②口④ |②-③-|
③口⑤口 |④-⑤-|
口⑥口口 |⑥---|
12
①口③口 |①---|
口④口口 |②---|
②口⑤口 |③-④-|
口⑥口口 |⑤-⑥-|
13
④④口⑤ |--①-|
⑤口①① |②-③-|
②②口⑤ |④---|
⑤口③③ |⑤---|
14
口口口⑦ |--①-|
口⑥⑤④ |②-③-|
①②③口 |④-⑤-|
口口口口 |⑥-⑦-|
15
口⑤口⑥ |--①-|
①口④口 |②-③-|
口口②口 |--④-|
口③口口 |⑤-⑥-|
16
口⑦口口 |--①-|
口⑥⑤④ |②-③-|
①②③口 |④-⑤-|
口口口口 |⑥-⑦-|
17
口口口口 |--①-|
口口口② |--②-|
口①口口 |--③-|
口口口③ |----|
18
口口口⑦ |--①-|
口⑥⑤④ |②-③-|
①②③口 |④-⑤-|
口口口口 |⑥-⑦-|
19
口⑤口⑥ |--①-|
①口④口 |②-③-|
口口②口 |--④-|
口③口口 |⑤-⑥-|
20
口口③口 |----|
①口口① |①---|
口口口口 |②---|
②口口② |--③-|
21
④口口④ |--①-|
口口口口 |②-③-|
口②①口 |④---|
⑤③口⑤ |⑤---|
22
口口口⑦ |--①-|
口⑥⑤④ |②-③-|
①②③口 |④-⑤-|
口口口口 |⑥-⑦-|
23
口⑤口⑥ |--①-|
①口④口 |②-③-|
口口②口 |--④-|
口③口口 |⑤-⑥-|
24
⑦⑦口口 |--①-|
口⑥⑤④ |②-③-|
①②③口 |④-⑤-|
口口口口 |⑥-⑦-|
25
口口②② |--①-|
口口口口 |--②-|
口口口口 |--③-|
①①③③ |----|
26
口口口⑥ |--①-|
口⑤口④ |②-③-|
①②③口 |④---|
口口口口 |⑤-⑥-|
27
口⑤口⑥ |--①-|
①口④口 |②-③-|
口口②口 |--④-|
口③口口 |⑤-⑥-|
28
口口③口 |----|
①口口① |①---|
口口口口 |②---|
②口口② |--③-|
29
口口口口 |--①-|
口口口口 |②-③-|
口①②口 |----|
③③口口 |----|
30
①口口口 |--①-|
口②口③ |②---|
口口口口 |③---|
口口口口 |----|
31
口①口② |①---|
口口③口 |②-③-|
口口口口 |----|
口口口口 |----|
32
口口口口 |----|
口口口口 |①---|
①口②口 |②---|
③口口口 |--③-|
33
口口口口 |①---|
口口口口 |②-③-|
口①口③ |----|
口口②口 |----|
34
①③口口 |----|
口口口口 |①---|
②口口口 |②---|
口口口口 |--③-|
35
口口口口 |①---|
①④口口 |②-③-|
⑤②口口 |--④-|
③口口口 |⑤---|
36
口口①③ |----|
口口口口 |①---|
口口②口 |②---|
口口口口 |③---|
37
口口口口 |①---|
口口口② |②---|
口口口① |③---|
口口口③ |----|
38
④口口④ |①-②-|
⑤①①⑤ |③---|
⑥②②⑥ |④-⑤-|
口③③口 |⑥---|
39
口①②口 |①-②-|
口③口口 |③---|
口口口口 |④---|
口口④口 |----|
40
口口口口 |①---|
③口口④ |②---|
①口口② |③---|
口口口口 |④---|
41
口口口口 |①---|
口①①口 |----|
口口口口 |----|
口口口口 |----|
42
口①口口 |①---|
③③口口 |②-③-|
口口②口 |--④-|
④④口口 |----|
43
口口①口 |①---|
口⑤③③ |②-③-|
口②⑤口 |--④-|
口口④④ |⑤---|
44
①口口① |①---|
口口口口 |----|
口口口口 |----|
口口口口 |----|
45
口口口口 |--①-|
口①①口 |--②-|
口口口口 |----|
③②②③ |③---|
46
①①①① |①---|
②口③口 |--②-|
口④口口 |③-④-|
口口口⑤ |⑤---|
47
口口口口 |①---|
口③口口 |②-③-|
①口②口 |----|
④口口④ |④---|
48
①①①① |①---|
②口③口 |--②-|
口④口⑤ |③-④-|
口⑥口口 |⑤-⑥-|
49
口②口口 |①---|
口口③口 |②-③-|
口口①口 |----|
口口口口 |----|
50
口口口口 |①---|
④口②口 |②-③-|
口③口口 |----|
①口①口 |④---|
51
口①口① |①---|
口③口④ |②-③-|
口口②口 |--④-|
口口口口 |----|
52
口③口④ |①---|
③口④口 |②---|
①口②口 |③---|
口①口② |④---|
53
①口①口 |①---|
口②口口 |②-③-|
③口③口 |----|
④②口④ |④---|
54
①①①① |①---|
④⑥口⑤ |--②-|
②④⑤③ |③-④-|
口②③口 |⑤-⑥-|
55
①口口① |①---|
口口②口 |②-③-|
③口口③ |----|
④口口④ |④---|
56
①①①① |①---|
④⑥口⑤ |--②-|
②④⑤③ |③-④-|
口②③口 |⑤-⑥-|
57
①口口① |①---|
口口②口 |②-③-|
③口口③ |----|
口口口口 |----|
58
①①①口 |①---|
口口②口 |②-③-|
口③口④ |----|
口口口口 |④---|
59
口口口口 |①---|
④口③口 |②-③-|
口②口口 |--④-|
口①①① |----|
60
口③口④ |①---|
③口④口 |②---|
①口②口 |③---|
口①口② |④---|
61
①③①口 |①---|
③口③口 |----|
口③口口 |②---|
口②口② |③---|
62
①口①口 |①---|
口①口口 |----|
①口①口 |----|
口口口口 |----|
63
口口①① |①---|
②②口口 |②---|
口口③③ |③---|
④④口口 |④---|
64
①口口口 |①---|
⑥口口口 |②---|
②口③⑤ |③-④-|
口④口② |⑤-⑥-|
65
口口①口 |--①-|
口②④口 |②-③-|
③⑤口⑥ |④-⑤-|
⑥口口② |⑥---|
66
①口口口 |①---|
⑥口口口 |②---|
②口③⑤ |③-④-|
口④口② |⑤-⑥-|
67
口口①口 |--①-|
口②⑥口 |②-③-|
③⑦④⑥ |④-⑤-|
口⑤口② |⑥-⑦-|
68
①口口口 |①---|
⑥口口口 |②---|
②口③⑤ |③-④-|
口④口② |⑤-⑥-|
69
口口①口 |--①-|
口②④口 |②-③-|
③⑤口⑥ |④-⑤-|
⑥口口② |⑥---|
70
①口③③ |①---|
④④口口 |②---|
②口⑤⑤ |③-④-|
⑥⑥口② |⑤-⑥-|
71
④④口口 |--①-|
口⑤③③ |②-③-|
②②⑤口 |④---|
口口①① |⑤---|
72
口口口① |①---|
①口口口 |----|
口口口① |----|
①口口口 |----|

不確定度: 0

最終更新:2014年12月11日 23:55