乙女の真骨頂
乙女の純情

EXTREME

Level: 8
BPM: 180
Notes: 532

1
口口口口 |----|
口口口口 |----|
口口口口 |----|
口口口口 |----|
2
①①②② |①-②-|
③③④④ |③-④-|
口口口口 |⑤-⑥-|
⑤⑦⑥⑧ |⑦-⑧-|
3
口口口口 |--①-|
③口②口 |②-③-|
①⑤口④ |④-⑤-|
⑦口⑥口 |⑥-⑦-|
4
②②①① |①-②-|
④④③③ |③-④-|
口口口口 |⑤-⑥-|
⑧⑥⑦⑤ |⑦-⑧-|
5
口口口口 |----|
②口口② |①---|
口①①口 |--②-|
口口口口 |----|
6
①①①① |①---|
口口口口 |②---|
口口口口
②口口②

⑤口口口
③③口⑤
口口④④ |③-④-|
口口口口 |--⑤-|
7
口口④① |--①-|
口⑤②口 |②-③-|
⑥③口口 |④-⑤-|
口口口口 |⑥---|
8
①口口① |①---|
口口口口 |②---|
口口口口
②口口②

⑤口口口
③③口⑤
口口④④ |③-④-|
口口口口 |--⑤-|
9
口口④① |--①-|
口⑤②口 |②-③-|
口③⑥口 |④-⑤-|
口⑦口口 |⑥-⑦-|
10
①口口① |①---|
口口口口 |②---|
口口口口
②口口②

⑤口口口
③③口⑤
口口④④ |③-④-|
口口口口 |--⑤-|
11
口口④① |--①-|
口⑤②口 |②-③-|
⑥③口口 |④-⑤-|
口口口口 |⑥---|
12
①口口① |①---|
口口④③ |②---|
⑥⑤口口 |③-④-|
②口口② |⑤-⑥-|
13
②②③③ |--①-|
口⑤⑤口 |②-③-|
口⑤⑤口 |④---|
④④①① |⑤---|
14
①③②口 |--①-|
口⑤⑥④ |②-③-|
口口口口 |④-⑤-|
⑦口口口 |⑥-⑦-|
15
口口口⑥ |--①-|
口口⑤口 |②-③-|
口口口④ |--④-|
口②③① |⑤-⑥-|
16
①③②口 |--①-|
口⑤⑥④ |②-③-|
⑦口口口 |④-⑤-|
口⑦口口 |⑥-⑦-|
17
口口口口 |--①-|
①口口③ |--②-|
口①③② |--③-|
口口②口 |----|
18
①③②口 |--①-|
口⑤⑥④ |②-③-|
口口口口 |④-⑤-|
⑦口口口 |⑥-⑦-|
19
口口口⑥ |--①-|
口口⑤口 |②-③-|
口口口④ |--④-|
口②③① |⑤-⑥-|
20
①①口口 |----|
口口口③ |①---|
口口口口 |②---|
口口②② |--③-|
21
口④口⑤ |--①-|
①口②口 |②-③-|
口③口口 |④---|
⑤口④口 |⑤---|
22
①③②口 |--①-|
口⑤⑥④ |②-③-|
口口口口 |④-⑤-|
⑦口口口 |⑥-⑦-|
23
口口口⑥ |--①-|
口口⑤口 |②-③-|
口口口④ |--④-|
口②③① |⑤-⑥-|
24
①③②口 |--①-|
口⑤⑥④ |②-③-|
⑦口口口 |④-⑤-|
口⑦口口 |⑥-⑦-|
25
口口口口 |--①-|
①口口③ |--②-|
口①③② |--③-|
口口②口 |----|
26
①③②口 |--①-|
口口口④ |②-③-|
⑤⑥口口 |④---|
口口口口 |⑤-⑥-|
27
口口口⑥ |--①-|
口口⑤口 |②-③-|
口口口④ |--④-|
口②③① |⑤-⑥-|
28
①①口③ |----|
口口口口 |①---|
口口口口 |②---|
口口②② |--③-|
29
口口口口 |--①-|
口口②② |②-③-|
①口口口 |----|
③③口口 |----|
30
①口②口 |--①-|
口③口口 |②---|
口口口口 |③---|
口口口口 |----|
31
口口口口 |①---|
①口②口 |②-③-|
口③口口 |----|
口口口口 |----|
32
口口口口 |----|
口口口口 |①---|
口口③口 |②---|
口②口① |--③-|
33
口口口口 |①---|
口③口② |②-③-|
①口口口 |----|
口口口口 |----|
34
①口②口 |----|
③口口口 |①---|
口口口口 |②---|
口口口口 |--③-|
35
口口口口 |①-②-|
口口①口 |③-④-|
③②④口 |--⑤-|
⑤口⑥口 |⑥---|
36
①口口口 |----|
口③口口 |①---|
口口②② |②---|
口口口口 |③---|
37
口口①① |①---|
口口③③ |②---|
②口口口 |③---|
口口口口 |----|
38
口口口口 |①-②-|
③③⑥⑥ |③---|
②②⑤⑤ |④-⑤-|
①①④④ |⑥---|
39
口①②口 |①-②-|
口口口口 |③---|
③口口④ |④---|
口口口口 |----|
40
④①④① |①---|
口口口口 |②---|
口口口口 |③---|
②③②③ |④---|
41
口口口口 |①---|
①①口口 |----|
口口①① |----|
口口口口 |----|
42
口口③③ |①---|
口口口口 |②-③-|
口④④② |--④-|
口口①口 |----|
43
③③口口 |①---|
⑤口口⑤ |②-③-|
②④④口 |--④-|
口①口口 |⑤---|
44
口口口口 |①---|
口口口口 |----|
口口口口 |----|
①口口① |----|
45
①①①① |--①-|
口③口口 |--②-|
②②②② |----|
口口③口 |③---|
46
②口①① |①---|
②⑥③口 |②-③-|
⑥④口口 |④-⑤-|
①①⑤⑦ |⑥-⑦-|
47
口④口口 |①---|
②⑤口② |②-③-|
口口③口 |④---|
口①⑤口 |⑤---|
48
②口①① |①---|
②⑥③口 |②-③-|
⑥④口口 |④-⑤-|
①①⑤⑦ |⑥-⑦-|
49
口④口口 |①---|
②⑤口② |②-③-|
口口③口 |④---|
口①口口 |⑤---|
50
①口口① |①---|
口⑤口② |②-③-|
②口口④ |④---|
口③口⑤ |⑤---|
51
①口①口 |①---|
口⑤②口 |②-③-|
②口④口 |④-⑤-|
口③⑥口 |⑥---|
52
①口口③ |①---|
口④②口 |②---|
口②④口 |③---|
③口口① |④---|
53
口③①口 |①---|
③④②① |②-③-|
①②口③ |----|
口①③④ |④---|
54
②口①① |①---|
②⑥③口 |②-③-|
⑥④口口 |④-⑤-|
①①⑤⑦ |⑥-⑦-|
55
口④口口 |①---|
②⑤口② |②-③-|
口口③口 |④---|
口①⑤口 |⑤---|
56
②口①① |①---|
②⑥③口 |②-③-|
⑥④口口 |④-⑤-|
①①⑤⑦ |⑥-⑦-|
57
口④口口 |①---|
②⑤口② |②-③-|
口口③口 |④---|
口①口口 |⑤---|
58
①口⑤④ |①---|
口⑤①② |②-③-|
②口口口 |④---|
口③①口 |⑤---|
59
①口⑥④ |①---|
口⑤①② |②-③-|
②口口口 |④-⑤-|
口③①口 |⑥---|
60
②②口口 |①---|
④④①③ |②---|
③①④④ |③---|
口口②② |④---|
61
②②③① |①---|
口口①③ |----|
③①口口 |②---|
①③②② |③---|
62
口口口口 |①---|
口①①口 |----|
口①①口 |----|
口口口口 |----|
63
①口口① |①---|
②③③② |②---|
口④④口 |③---|
口口口口 |④---|
64
①①口口 |①---|
口口口口 |②---|
口口口口
②口口②

⑤⑤口口
③③口口
口口④④ |③-④-|
口口口口 |--⑤-|
65
口口④① |--①-|
口⑤②口 |②-③-|
⑥③口口 |④-⑤-|
口口口口 |⑥---|
66
①①口口 |①---|
口口口口 |②---|
口口口口
②口口②

⑤⑤口口
③③口口
口口④④ |③-④-|
口口口口 |--⑤-|
67
口口④① |--①-|
口⑤②口 |②-③-|
口③⑥口 |④-⑤-|
口⑦口口 |⑥-⑦-|
68
①①口口 |①---|
口口口口 |②---|
口口口口
②口口②

⑤⑤口口
③③口口
口口④④ |③-④-|
口口口口 |--⑤-|
69
口口④① |--①-|
口⑤②口 |②-③-|
⑥③口口 |④-⑤-|
口口口口 |⑥---|
70
①①③③ |①---|
⑤⑤④④ |②---|
⑥⑥口口 |③-④-|
②口口② |⑤-⑥-|
71
②②③③ |--①-|
⑤⑤⑤⑤ |②-③-|
口口口口 |④---|
④④①① |⑤---|
72
口口口口 |①---|
口口口口 |----|
①①①① |----|
口口口口 |----|

不確定度: 0

最終更新:2014年12月11日 23:54