passionate fate
Ryu☆

ADVANCED

Level: 7
BPM: 149
Notes: 544

1
口口口口 |----|
口口口口 |----|
口口口口 |----|
口口口口 |----|
2
口口口口 |----|
口口口口 |----|
口口口口 |----|
口口口口 |----|
3
①②口口 |①--②|
口口④③ |----|
口口口口 |③--④|
口口口口 |----|
4
口口口口 |①-②-|
口①口口 |③-④-|
口⑤②口 |⑤---|
口③④口 |----|
5
口口③① |①---|
④⑤⑥口 |②---|
口口口② |③---|
口口口口 |④⑤⑥-|
6
①③口口 |①---|
口⑥⑤④ |②---|
②口口口 |③---|
口口口口 |④⑤⑥-|
7
③④②① |①--②|
口口口口 |----|
口口口口 |③--④|
口口口口 |----|
8
口口口口 |①-②-|
口口①口 |③-④-|
口②⑤口 |⑤---|
口④③口 |----|
9
①口口① |①---|
②口口② |----|
口口口口 |②---|
口口口口 |----|
10
口①①口 |①---|
口②②口 |②---|
口③③口 |③---|
口④④口 |④---|
11
口口口口 |----|
口⑤③口 |--①-|
口②④口 |②-③-|
①口口口 |④-⑤-|
12
②⑤⑤② |①--②|
③口口④ |--③-|
③口⑥④ |④--⑤|
口①①口 |--⑥-|
13
④口口② |①-②-|
口⑤②口 |--③-|
口口⑥③ |④-⑤-|
①口口⑦ |⑥-⑦-|
14
口口口口 |①---|
口口②口 |--②-|
口口口口
①①口口

④口口④
口③口口
口口口口 |③--④|
口⑤⑤口 |--⑤-|
15
口口口口 |----|
口⑤③口 |--①-|
口②④口 |②-③-|
①口口口 |④-⑤-|
16
②⑤⑤② |①--②|
③口口④ |--③-|
③口⑥④ |④--⑤|
口①①口 |--⑥-|
17
④口口② |①-②-|
口⑤②口 |--③-|
口口⑥③ |④-⑤-|
①口口⑦ |⑥-⑦-|
18
口②口口 |①---|
口口口口 |--②-|
口口口口
①①口口

⑤口口⑤
③口口③
口⑤⑤口 |③--④|
口④④口 |--⑤-|
19
口口②口 |----|
口③口口 |--①-|
④口口口 |②-③-|
①口口⑤ |④-⑤-|
20
②②⑤⑤ |①--②|
口⑥口口 |--③-|
口①口④ |④--⑤|
口口③口 |--⑥-|
21
②②口口 |①-②-|
④口⑤③ |--③-|
④⑥①③ |④-⑤-|
口口口⑦ |⑥-⑦-|
22
⑥口口⑤ |①---|
口④③② |--②③|
⑥口口⑤ |④--⑤|
①①口口 |--⑥-|
23
口口口② |----|
口口③口 |--①-|
口④口口 |②-③-|
⑤①口口 |④-⑤-|
24
⑤⑤②② |①--②|
④口⑥口 |--③-|
口口口① |④--⑤|
口③口口 |--⑥-|
25
口口②② |①-②-|
③⑤口④ |--③-|
③①⑥④ |④-⑤-|
⑦口口口 |⑥-⑦-|
26
口口口口 |①---|
口口口口 |--②-|
口②口口
口口①①

③口口③
口⑤⑤口
⑤口口⑤ |③--④|
口④④口 |--⑤-|
27
口口口口 |----|
口口口口 |----|
口口口口 |----|
口口口口 |----|
28
口口口④ |①-②-|
①口⑥口 |③-④-|
口②③口 |--⑤-|
口口口⑤ |--⑥-|
29
口⑥口口 |①-②-|
①②⑦口 |③-④-|
③④口口 |⑤---|
⑤口口口 |⑥-⑦-|
30
口口口口 |①-②-|
④⑥口口 |③-④-|
口口口① |--⑤-|
⑤③②口 |--⑥-|
31
口口口口 |①-②-|
口口②① |③-④-|
口⑥④③ |⑤-⑥-|
⑦口口⑤ |⑦---|
32
①口口④ |①-②-|
口②③口 |③-④-|
口口⑤口 |--⑤-|
口口口⑥ |--⑥-|
33
口⑥口口 |①-②-|
①②⑦口 |③-④-|
③④口口 |⑤---|
⑤口口口 |⑥-⑦-|
34
口口口口 |①-②-|
④口口口 |③-④-|
口⑥口① |--⑤-|
⑤③②口 |--⑥-|
35
②口口② |①---|
④①①④ |----|
④口口④ |②--③|
口③③口 |--④-|
36
口口口口 |----|
口⑤③口 |--①-|
口②④口 |②-③-|
①口口口 |④-⑤-|
37
②⑤⑤② |①--②|
③口口④ |--③-|
③口⑥④ |④--⑤|
口①①口 |--⑥-|
38
④口口② |①-②-|
口⑤②口 |--③-|
口口⑥③ |④-⑤-|
①口口⑦ |⑥-⑦-|
39
口口口口 |①---|
口口②口 |--②-|
口口口口
①①口口

④口口④
口③口口
口口口口 |③--④|
口⑤⑤口 |--⑤-|
40
口口口口 |----|
口⑤③口 |--①-|
口②④口 |②-③-|
①口口口 |④-⑤-|
41
②⑤⑤② |①--②|
③口口④ |--③-|
③口⑥④ |④--⑤|
口①①口 |--⑥-|
42
④口口② |①-②-|
口⑤②口 |--③-|
口口⑥③ |④-⑤-|
①口口⑦ |⑥-⑦-|
43
口②口口 |①---|
口口口口 |--②-|
口口口口
①①口口

⑤口口⑤
③口口③
口⑤⑤口 |③--④|
口④④口 |--⑤-|
44
口②①口 |--①-|
口口口口 |--②-|
口③③口 |--③-|
①④④② |④---|
45
①口口④ |①--②|
②①④⑤ |--③-|
②③⑥⑤ |④--⑤|
③口口⑥ |--⑥-|
46
⑧②②⑧ |①-②-|
③⑤⑤④ |③-④-|
③⑥⑥④ |⑤-⑥-|
⑦①①⑦ |⑦-⑧-|
47
口①④口 |①--②|
①②⑤④ |--③-|
②③⑥⑤ |④--⑤|
口③⑥口 |--⑥-|
48
③①③② |①-②-|
②①口口 |③-④-|
口④口④
口口口口

口⑧口口
口口口⑧
⑤口⑥口 |⑤-⑥-|
⑥⑦⑦⑤ |⑦-⑧-|
49
①口口④ |①--②|
②①④⑤ |--③-|
②③⑥⑤ |④--⑤|
③口口⑥ |--⑥-|
50
⑧②②⑧ |①-②-|
③⑤⑤④ |③-④-|
③⑥⑥④ |⑤-⑥-|
⑦①①⑦ |⑦-⑧-|
51
口①④口 |①--②|
①②⑤④ |--③-|
②③⑥⑤ |④--⑤|
口③⑥口 |--⑥-|
52
②口④② |①-②-|
口⑤口口 |--③-|
③口⑥口 |④-⑤-|
①⑦口① |⑥-⑦-|
53
⑤口口② |①--②|
口口③口 |--③-|
口⑥⑦口 |④--⑤|
④口口① |--⑥⑦|
54
口②口③ |①-②-|
口④口口 |--③-|
口口⑤① |④-⑤-|
⑥口口⑦ |⑥-⑦-|
55
口口口口 |①---|
②③口口 |--②③|
口口口口
口①口口

⑥口口口
口口④口
口口口口 |④--⑤|
口⑤口口 |--⑥-|
56
口②口口 |----|
口口③口 |--①-|
口④口① |②-③-|
口口⑤口 |④-⑤-|
57
②口口⑤ |①--②|
口③口口 |--③-|
口⑦⑥口 |④--⑤|
①口口④ |--⑥⑦|
58
③口②口 |①-②-|
口口④口 |--③-|
①⑤口口 |④-⑤-|
⑦口口⑥ |⑥-⑦-|
59
口口口口 |①---|
口口③② |--②③|
口口口口
口口①口

⑥口口⑥
口④口口
口口口口 |④--⑤|
口⑤⑤口 |--⑥-|
60
口口口口 |----|
口⑤③口 |--①-|
口②④口 |②-③-|
①口口口 |④-⑤-|
61
②口口② |①--②|
③口口口 |--③-|
③口口口
口①①口

口⑤⑤口
口口口④
口口口④ |④--⑤|
口⑦⑥口 |--⑥⑦|
62
④口口② |①-②-|
口⑤②口 |--③-|
口口⑥③ |④-⑤-|
①口口⑦ |⑥-⑦-|
63
口口口口 |①---|
口口③② |--②③|
口口口口
①①口口

⑤口口⑤
口④口口
口口口口 |④--⑤|
口⑥⑥口 |--⑥-|
64
口口口口 |----|
口⑤③口 |--①-|
口②④口 |②-③-|
①口口口 |④-⑤-|
65
②口口② |①--②|
③口口口 |--③-|
③口口口
口①①口

口⑤⑤口
口口口④
口口口④ |④--⑤|
口⑦⑥口 |--⑥⑦|
66
④口口② |①-②-|
口⑤②口 |--③-|
口口⑥③ |④-⑤-|
①口口⑦ |⑥-⑦-|
67
口②③口 |①---|
口口口口 |--②③|
口口口口
①①口口

⑥口口⑥
④口口④
口⑥⑥口 |④--⑤|
口⑤⑤口 |--⑥-|
68
口口口口 |①--②|
口①①口 |--③-|
②口口③
②口口③

口口口口
④⑤⑤④
口口口口 |-④--|
口⑥⑥口 |⑤-⑥-|
69
①口口① |①---|
口口口口 |----|
口①①口 |----|
口口口口 |----|

不確定度: 0

最終更新:2014年12月11日 23:54