We are チャリンコエンジェルス
浦安マリンエンジェルス

BASIC

Level: 3
BPM: 145
Notes: 185

1
口口口口 |----|
口口口口 |----|
口口口口 |----|
口口口口 |----|
2
口口口口 |①---|
口口口口 |----|
口口口口 |----|
①①口口 |----|
3
口口口口 |①---|
口口口口 |----|
口口口口 |----|
口口①① |----|
4
口口口口 |①---|
口口口口 |----|
①①口口 |----|
口口口口 |----|
5
口口口口 |①---|
口口口口 |----|
口口①① |----|
口口口口 |----|
6
口口口口 |①---|
口②②口 |----|
口口口口 |②---|
①①口口 |----|
7
口口口口 |①---|
口②②口 |----|
口口口口 |②---|
口口①① |----|
8
口口口口 |①---|
口②②口 |----|
口口口口 |②---|
①①口口 |----|
9
口口口口 |①---|
口②②口 |----|
口口口口 |②---|
口口①① |----|
10
口口口口 |----|
口口口口 |----|
口口口口 |----|
口口口口 |----|
11
口口口口 |----|
口口口口 |----|
口口口口 |----|
口口口口 |----|
12
①口口口 |①---|
②口口口 |----|
口口口口 |②---|
口口口口 |----|
13
口①口口 |①---|
口②口口 |----|
口口口口 |②---|
口口口口 |----|
14
口口①口 |①---|
口口②口 |----|
口口口口 |②---|
口口口口 |----|
15
口口口① |①---|
②口口② |----|
口口口口 |②---|
口口口口 |----|
16
口口口口 |①---|
②口口② |----|
口口口口 |②---|
口口①① |----|
17
②口口② |①---|
口口口口 |----|
①①口口 |②---|
口口口口 |----|
18
口口口口 |①---|
口口口口 |----|
口①①口 |----|
口口口口 |----|
19
口口口口 |----|
口口口口 |----|
口口口口 |----|
口口口口 |----|
20
口口口口 |①---|
口口口口 |----|
①口口口 |②---|
②口口口 |----|
21
口口口口 |①---|
口口口口 |----|
口①口口 |②---|
口②口口 |----|
22
口口口口 |①---|
口口口口 |----|
口口①口 |②---|
口口②口 |----|
23
口口口口 |①---|
口口口口 |----|
口口口① |②---|
口口口② |----|
24
口口口口 |①---|
口口①① |----|
口口口口 |②---|
②口口② |----|
25
①①口口 |①---|
口口口口 |----|
②口口② |②---|
口口口口 |----|
26
口口口口 |①---|
口①①口 |----|
口②②口 |②---|
口口口口 |----|
27
①口口① |①---|
口口口口 |----|
口口口口 |----|
口口口口 |----|
28
①口口口 |①---|
②口口口 |②---|
③口口口 |③---|
④口口口 |④---|
29
口口口口 |①---|
口口口口 |----|
口②②口 |②---|
口①①口 |----|
30
口口口① |①---|
口口口② |②---|
口口口③ |③---|
口口口④ |④---|
31
口口口口 |①---|
口口口口 |----|
口口口口 |----|
口①①口 |----|
32
①口口口 |①---|
②口口口 |②---|
③口口口 |③---|
④口口口 |④---|
33
口口口口 |①---|
口口口口 |----|
口②②口 |②---|
口①①口 |----|
34
口口口① |①---|
口口口② |②---|
口口口③ |③---|
口口口④ |④---|
35
口口口口 |①---|
口口口口 |----|
口②②口 |②---|
口①①口 |----|
36
①口口① |①---|
口口②② |----|
③③口口 |②---|
口口口口 |③---|
37
①口口① |①---|
口口②② |②---|
③③口口 |③---|
口口④④ |④---|
38
①口口① |①---|
口口②② |----|
③③口口 |②---|
口口口口 |③---|
39
口口口口 |①---|
口口口口 |----|
口②②口 |②---|
①口口① |----|
40
①口口① |①---|
口口②② |----|
③③口口 |②---|
口口口口 |③---|
41
①口口① |①---|
口口②② |②---|
③③口口 |③---|
口口④④ |④---|
42
①口口① |①---|
口口②② |②---|
③③口口 |③---|
口口④④ |④---|
43
口口口口 |①---|
①口口① |----|
口口口口 |②---|
②口口② |----|
44
口口口口 |①---|
口口口口 |②---|
①①口口 |----|
口口②② |----|
45
口口口口 |①---|
口口口口 |②---|
①①口口 |----|
口口②② |----|
46
口口口口 |①---|
口口口口 |②---|
①①口口 |----|
口口②② |----|
47
口口口口 |①---|
口口口口 |②---|
①①口口 |----|
口口②② |----|
48
口口口口 |①---|
口③③口 |②---|
口口口口 |③---|
①①②② |----|
49
口口口口 |①---|
口③③口 |②---|
口口口口 |③---|
①①②② |----|
50
口口口口 |①---|
口③③口 |②---|
口口口口 |③---|
①①②② |----|
51
口口口口 |①---|
口③③口 |②---|
口口口口 |③---|
①①②② |----|

不確定度: 0

最終更新:2014年12月11日 23:52