KHAMEN BREAK
くふおー

BASIC

Level: 5
BPM: 180
Notes: 400

1
口口口口 |----|
口口口口 |----|
口口口口 |----|
口口口口 |----|
2
口口口口 |----|
口口口口 |----|
口口口口 |----|
口口口口 |----|
3
口口②口 |----|
口口口口 |①---|
口口口口 |②---|
口①口口 |----|
4
口口口口 |①---|
口①①口 |----|
口①①口 |----|
口口口口 |----|
5
口口口口 |①---|
口口口① |----|
口口口口 |----|
口口口口 |----|
6
口口口口 |①---|
口口口口 |----|
口口①口 |----|
口口口口 |----|
7
口口口口 |①---|
口口口口 |----|
口口口口 |----|
口①口口 |----|
8
①口口口 |①---|
口口④口 |--②-|
口③②口 |③---|
口口口口 |--④-|
9
口④③② |①---|
口①口口 |②---|
口口口口 |③---|
口口口口 |④---|
10
①口口口 |①---|
口口口口 |----|
②口口口 |②---|
口口口口 |----|
11
口口口口 |①---|
口①①口 |----|
口口口口 |----|
口口口口 |----|
12
口口口口 |①-②-|
口③③口 |--③-|
口④④口 |----|
①口口② |④---|
13
①②③④ |①---|
口口口口 |②---|
口口口口 |③---|
口口口口 |④---|
14
①②③④ |①---|
口口口口 |②---|
口口口口 |③---|
口口口口 |④---|
15
①②③④ |①---|
口口口口 |②---|
口口口口 |③---|
口口口口 |④---|
16
口口口口 |①-②-|
口③③口 |--③-|
口④④口 |----|
①口口② |④---|
17
①②③④ |①---|
口口口口 |②---|
口口口口 |③---|
口口口口 |④---|
18
①②③④ |①---|
口口口口 |②---|
口口口口 |③---|
口口口口 |④---|
19
①②③④ |①---|
口口口口 |②---|
口口口口 |③---|
口口口口 |④---|
20
口口口口 |①---|
口口口口 |----|
口①①口 |----|
口口口口 |----|
21
④口口④ |①---|
③口口③ |②---|
②口口② |③---|
①口口① |④---|
22
口口④口 |①---|
口①④口 |②---|
口③②口 |③---|
口口口口 |④---|
23
口口口④ |①---|
①口口④ |②---|
③口口② |③---|
口口口口 |④---|
24
口①①口 |①---|
口②②口 |②---|
口③③口 |③---|
口④④口 |④---|
25
①口口① |①---|
②口口② |②---|
③口口③ |③---|
④口口④ |④---|
26
口口④口 |①---|
口①④口 |②---|
口③②口 |③---|
口口口口 |④---|
27
口口口④ |①---|
①口口④ |②---|
③口口② |③---|
口口口口 |④---|
28
口①①口 |①---|
口②②口 |②---|
口③③口 |③---|
口④④口 |④---|
29
①口口① |①---|
②口口② |②---|
③口口③ |③---|
④口口④ |④---|
30
口口④④ |①---|
口③口口 |②---|
口口②口 |③---|
口①口口 |④---|
31
口口④④ |①---|
③口口口 |②---|
口口口② |③---|
①口口口 |④---|
32
口口④④ |①---|
口③口口 |②---|
口口②口 |③---|
口①口口 |④---|
33
口口④④ |①---|
③口口口 |②---|
口口口② |③---|
①口口口 |④---|
34
④④口口 |①---|
口口③口 |②---|
口②口口 |③---|
口口①口 |④---|
35
④④口口 |①---|
口口口③ |②---|
②口口口 |③---|
口口口① |④---|
36
④④口口 |①---|
口口③口 |②---|
口②口口 |③---|
口口①口 |④---|
37
④④口口 |①---|
口口口③ |②---|
②口口口 |③---|
口口口① |④---|
38
口口口口 |①---|
口口口口 |----|
口口口口 |----|
①①①① |----|
39
口口口口 |①---|
口口口口 |----|
①①①① |----|
口口口口 |----|
40
口口口口 |①---|
①①①① |----|
口口口口 |----|
口口口口 |----|
41
①①①① |①---|
口口口口 |----|
口口口口 |----|
口口口口 |----|
42
口口口口 |①---|
口口口口 |②---|
口口口口 |③---|
①②③④ |④---|
43
口口口口 |①---|
口口口口 |②---|
①②③④ |③---|
口口口口 |④---|
44
口口口口 |①---|
①②③④ |②---|
口口口口 |③---|
口口口口 |④---|
45
①②③④ |①---|
口口口口 |②---|
口口口口 |③---|
口口口口 |④---|
46
口口口口 |①---|
①①口口 |----|
②②口口 |②---|
口口口口 |----|
47
口口口口 |①---|
口口口口 |②---|
口口口口 |③---|
口③②① |----|
48
口口口口 |①---|
口口①① |----|
口口②② |②---|
口口口口 |----|
49
①②③口 |①---|
口口口口 |②---|
口口口口 |③---|
口口口口 |----|
50
口口口口 |①---|
①①口口 |----|
②②口口 |②---|
口口口口 |----|
51
口口口口 |①---|
口口口口 |②---|
口口口口 |③---|
口③②① |----|
52
口口口口 |①---|
口①①口 |----|
口②②口 |②---|
口口口口 |----|
53
①口口① |①---|
②口口② |②---|
③口口③ |③---|
④口口④ |④---|
54
口口口口 |①---|
④①口口 |②---|
③②口口 |③---|
口口口口 |④---|
55
口口口口 |①---|
口口口口 |②---|
口口口口 |③---|
口③②① |----|
56
口口口口 |①---|
口口①④ |②---|
口口②③ |③---|
口口口口 |④---|
57
①②③口 |①---|
口口口口 |②---|
口口口口 |③---|
口口口口 |----|
58
口口口口 |①---|
④①口口 |②---|
③②口口 |③---|
口口口口 |④---|
59
口口口口 |①---|
口口口口 |②---|
口口口口 |③---|
④③②① |④---|
60
口口口口 |①---|
口④③口 |②---|
口②①口 |③---|
口口口口 |④---|
61
②口口① |①---|
④口口③ |②---|
口口口口 |③---|
口口口口 |④---|
62
口口口口 |①---|
口口口口 |----|
口②口① |----|
口口口口 |②---|
63
口口口口 |①---|
口①②口 |----|
口口口口 |----|
口口口口 |②---|
64
口口口口 |①---|
口口口口 |----|
口口①口 |②---|
②口口口 |----|
65
口口口口 |①---|
口口口口 |----|
口口口口 |----|
口口口① |----|
66
口口口口 |①---|
口口口口 |--②-|
①口口② |----|
口③口口 |③---|
67
口口口口 |①---|
①口口② |--②-|
口③口口 |----|
口口口口 |③---|
68
口口口口 |①---|
口口口口 |----|
口口②口 |②---|
口口①口 |----|
69
口口口口 |①---|
口口①口 |----|
口口口口 |----|
口口口口 |----|
70
①口口口 |①---|
口口②口 |②---|
③口口口 |③---|
口口④口 |④---|
71
口①口口 |①---|
口口口② |②---|
口③口口 |③---|
口口口④ |④---|
72
口口口① |①---|
口②口口 |②---|
口口口③ |③---|
口④口口 |④---|
73
口口①口 |①---|
②口口口 |②---|
口口③口 |③---|
④口口口 |④---|
74
口口口① |①---|
口口口② |②---|
口口口③ |③---|
口口口④ |④---|
75
口口口口 |①---|
口口口口 |②---|
④口口口 |③---|
③②①口 |④---|
76
②③④口 |①---|
①口口口 |②---|
口口口口 |③---|
口口口口 |④---|
77
口口口口 |①---|
口④①口 |②---|
口③②口 |③---|
口口口口 |④---|
78
①口口① |①---|
口口口口 |----|
口口口口 |----|
口口口口 |----|
79
口③口口 |①---|
口口口口 |②---|
口口口口 |③---|
①口②① |----|
80
②口口口 |①---|
③①①口 |②---|
④①①口 |③---|
口口口口 |④---|
81
口口口口 |①---|
口口③口 |②---|
口②口口 |③---|
口口①口 |----|
82
①口口③ |①---|
口②④口 |②---|
口口口口 |③---|
口口口口 |④---|
83
口①①口 |①---|
②口口② |②---|
口③③口 |③---|
④口口④ |④---|
84
②口口口 |①---|
③口口口 |②---|
④口口口 |③---|
口①①口 |④---|
85
口口①口 |①---|
口②口口 |②---|
口口③口 |③---|
口口口口 |----|
86
口口口口 |①---|
①③③① |--②-|
②口口② |----|
口口口口 |③---|
87
口③口口 |--①-|
口口口口 |②---|
口①①口 |③---|
口口②口 |----|
88
②口口口 |①---|
③①①口 |②---|
④①①口 |③---|
口口口口 |④---|
89
口口口口 |①---|
口口③口 |②---|
口②口口 |③---|
口口①口 |----|
90
①口口③ |①---|
口②④口 |②---|
口口口口 |③---|
口口口口 |④---|
91
口①①口 |①---|
②口口② |②---|
口③③口 |③---|
④口口④ |④---|
92
②口口口 |①---|
③口口口 |②---|
④口口口 |③---|
口①①口 |④---|
93
口口①口 |①---|
口口口口 |②---|
口②口口 |③---|
口口③口 |----|
94
口③③口 |①---|
口①①口 |②---|
口②②口 |③---|
口④④口 |④---|
95
③口口③ |①---|
①口口① |②---|
②口口② |③---|
④口口④ |④---|
96
口②口口 |----|
口口口口 |①---|
口口口口 |②---|
口口①口 |----|
97
口口口口 |①---|
口①①口 |----|
口①①口 |----|
口口口口 |----|

不確定度: 0

最終更新:2014年12月11日 23:51