CAPTIVE
フルーティー

BASIC

Level: 3
BPM: 169
Notes: 184

1
口口口口 |----|
口口口口 |----|
口口口口 |----|
口口口口 |----|
2
口口口口 |----|
口①①口 |①---|
口②②口 |----|
口口口口 |②---|
3
口口口口 |①---|
③口口③ |②---|
②口口② |③---|
①口口① |----|
4
①②③④ |①---|
口口口口 |②---|
口口口口 |③---|
口口口口 |④---|
5
口口口口 |①---|
口①②口 |②---|
口③口口 |③---|
口口口口 |----|
6
口口口口 |①---|
①口口② |②---|
③口口④ |③---|
口口口口 |④---|
7
口口口口 |①---|
口口口口 |----|
口口口口 |----|
①口口口 |----|
8
口口口① |①---|
口口②口 |----|
口口口口 |②---|
口口口口 |----|
9
口口口口 |①---|
口口口口 |----|
口①口口 |②---|
②口口口 |----|
10
口口口口 |①---|
口口口口 |----|
口口②口 |②---|
口口口① |----|
11
②口口口 |①---|
口①口口 |----|
口口口口 |②---|
口口口口 |----|
12
口口口口 |①---|
口口①口 |----|
口口口口 |----|
口口口口 |----|
13
口口口口 |----|
口口口口 |----|
口口口口 |----|
口口口口 |----|
14
口口口口 |----|
口口口口 |----|
口口口口 |----|
口口口口 |----|
15
口口口口 |----|
口口口口 |----|
口口口口 |----|
口口口口 |----|
16
①②口口 |①---|
口③④口 |②---|
口口口口 |③---|
口口口口 |④---|
17
口口口口 |①---|
口口口口 |②---|
口口①② |③---|
口口口③ |----|
18
口口②① |①---|
口④③口 |②---|
口口口口 |③---|
口口口口 |④---|
19
口口口口 |①---|
口口口口 |②---|
②①口口 |③---|
③口口口 |----|
20
口口口口 |①---|
口口口口 |②---|
口②口口 |----|
口口①口 |----|
21
口②③口 |①---|
口④①口 |②---|
口口口口 |③---|
口口口口 |④---|
22
口口口口 |①---|
口口口口 |----|
口口①口 |----|
口口口口 |----|
23
口口口口 |①---|
口①①口 |----|
口口口口 |----|
口口口口 |----|
24
①②口口 |①---|
口③④口 |②---|
口口口口 |③---|
口口口口 |④---|
25
口口口口 |①---|
口口口口 |②---|
口口①② |③---|
口口口③ |----|
26
口口②① |①---|
口④③口 |②---|
口口口口 |③---|
口口口口 |④---|
27
口口口口 |①---|
口口口口 |②---|
②①口口 |③---|
③口口口 |----|
28
口口口口 |①---|
口口口口 |②---|
口②口口 |----|
口口①口 |----|
29
口②③口 |①---|
口④①口 |②---|
口口口口 |③---|
口口口口 |④---|
30
口口口口 |①---|
口口口口 |----|
口口①口 |----|
口口口口 |----|
31
④口口④ |①---|
③口口③ |②---|
②口口② |③---|
①口口① |④---|
32
口①①口 |①---|
口②口口 |②---|
口口③口 |③---|
口④口口 |④---|
33
口④口口 |①---|
口口③口 |②---|
口②口口 |③---|
口口①口 |④---|
34
口口口① |①---|
口口口② |----|
口口口口 |②---|
口口口口 |----|
35
口口口口 |①---|
口口口口 |----|
口口口① |----|
口口口口 |----|
36
口口口口 |----|
口口①口 |①---|
口②口口 |②---|
口口③口 |③---|
37
口口④口 |①---|
口③口口 |②---|
口口②口 |③---|
口①口口 |④---|
38
①口口③ |①---|
口口口口 |②---|
②口口④ |③---|
口口口口 |④---|
39
口口口口 |①---|
口③③口 |②---|
口②②口 |③---|
口①①口 |----|
40
①①②② |①---|
口口口口 |--②-|
③③口口 |----|
口口口口 |③---|
41
口口口口 |--①-|
口②②口 |----|
口口①① |②---|
口口口口 |----|
42
口口口口 |----|
口口口口 |①---|
口口口口 |②---|
①②③口 |③---|
43
口口口口 |①---|
口口口口 |----|
口口口口 |----|
口口口① |----|
44
口口口① |①---|
口口口② |②---|
口口口③ |③---|
口口口④ |④---|
45
口口口口 |①---|
③口口口 |②---|
②口口口 |③---|
①口口口 |----|
46
③②①口 |----|
口口口口 |①---|
口口口口 |②---|
口口口口 |③---|
47
口口口口 |①---|
②②①① |②---|
④④③③ |③---|
口口口口 |④---|
48
②②①① |①---|
口口口口 |--②-|
口口③③ |----|
口口口口 |③---|
49
口口口口 |--①-|
口②②口 |----|
①①口口 |②---|
口口口口 |----|
50
口口口口 |----|
口口口口 |①---|
口口口口 |②---|
口③②① |③---|
51
口口口口 |①---|
口口口口 |----|
口口口口 |----|
①口口口 |----|
52
口口口口 |①---|
口①①口 |----|
口②②口 |②---|
口口口口 |----|
53
口口口口 |①---|
①口口① |----|
②口口② |②---|
口口口口 |----|
54
口②②口 |①---|
口口口口 |----|
口口口口 |②---|
口①①口 |----|
55
口口口口 |①---|
①口口② |----|
口口口口 |②---|
口口口口 |----|
56
口口口口 |①---|
口口口口 |----|
口①①口 |----|
口口口口 |----|
57
口口口口 |①---|
口口口口 |----|
口口口口 |②---|
②口口① |----|
58
口口口口 |①---|
口口口口 |----|
②口口① |②---|
口口口口 |----|
59
口口口口 |①---|
口①①口 |----|
口②②口 |②---|
口口口口 |----|
60
①口口① |①---|
口口口口 |----|
口口口口 |----|
口口口口 |----|

不確定度: 0

最終更新:2015年02月06日 16:46