CAPTIVE
フルーティー

ADVANCED

Level: 6
BPM: 160
Notes: 392

1
口口口口 |----|
口口口口 |----|
口口口口 |----|
口口口口 |----|
2
口口口口 |----|
②①①② |①---|
②①①② |----|
口口口口 |②---|
3
①口⑥② |①-②-|
口口口口 |③-④-|
口⑤⑤口 |⑤---|
③口口④ |⑥---|
4
口口⑥④ |①-②-|
口口口② |--③-|
③⑤口口 |④---|
①口口口 |⑤-⑥-|
5
③口口口 |--①-|
口①口口 |--②-|
②口口④ |③-④-|
口口口口 |----|
6
③②①④ |--①-|
口口口⑤ |②-③-|
口口口⑥ |④-⑤-|
口口口⑦ |⑥-⑦-|
7
口口口口 |----|
口口口口 |----|
口口口口 |----|
口口口口 |----|
8
①口①口 |①---|
口②口② |②---|
③口③口 |③---|
口④口④ |④---|
9
口口口口 |①---|
口口口口 |②---|
口②口② |----|
①口①口 |----|
10
①①②② |①---|
口口口口 |----|
口口口口 |②---|
口口口口 |----|
11
口口口口 |①---|
口①①口 |----|
口②②口 |②---|
口口口口 |----|
12
口口口④ |①---|
口口口③ |②---|
口口口② |③---|
①口口① |④---|
13
③②①口 |①---|
④口口口 |②---|
口口口口 |③---|
口口口口 |④---|
14
口口口口 |①---|
口口口口 |②---|
①口口口 |③---|
②③④口 |④---|
15
口口口口 |①---|
口①①口 |----|
口口口口 |----|
口口口口 |----|
16
口口口⑥ |--①-|
口④⑤口 |②-③-|
①②③口 |④-⑤-|
口口口口 |--⑥-|
17
口口口口 |①-②-|
口口口口 |③-④-|
口口口口 |----|
①②③④ |----|
18
口口口口 |--①-|
⑦⑥⑤④ |②-③-|
口③②① |④-⑤-|
口口口口 |⑥-⑦-|
19
①口⑤口 |--①-|
口口口口 |②-③-|
口④④② |--④-|
③口口口 |--⑤-|
20
口口口口 |①-②-|
①⑥⑤口 |③-④-|
口⑤⑥② |--⑤-|
口③④口 |--⑥-|
21
②③③① |①---|
③口口口 |②---|
口口口④ |③---|
①④④② |④---|
22
口口口口 |①---|
口①①口 |----|
口①①口 |----|
口口口口 |----|
23
①口⑧⑧ |①-②-|
⑦⑦⑥⑥ |③-④-|
⑤⑤④④ |⑤-⑥-|
③③②② |⑦-⑧-|
24
①①口口 |①-②-|
口口口口 |③-④-|
⑤⑥⑦⑧ |⑤-⑥-|
口④③② |⑦-⑧-|
25
口①④口 |①-②-|
口③②口 |③-④-|
口口口口 |--⑤-|
口⑦⑥⑤ |⑥-⑦-|
26
口口口口 |①-②-|
②③④口 |③-④-|
⑦⑥⑤口 |--⑤-|
①口口口 |⑥-⑦-|
27
②⑦⑥⑤ |①-②-|
口口口③ |③-④-|
口口口口 |--⑤-|
④口口① |⑥-⑦-|
28
口口口⑥ |①-②-|
口⑤口① |③-④-|
②④⑤口 |--⑤-|
⑥口口③ |--⑥-|
29
①③③口 |①---|
口口②③ |②---|
④②口口 |③---|
口④④① |④---|
30
口口口口 |①---|
口①①口 |----|
口①①口 |----|
口口口口 |----|
31
口口口口 |①---|
④口口④ |②---|
③口口③ |③---|
②①①② |④---|
32
①③②① |①---|
④口口口 |②---|
口口口④ |③---|
口②③口 |④---|
33
口③②口 |①---|
口口④① |②---|
①⑤口口 |③---|
口②③口 |④-⑤-|
34
②口口口 |①---|
口⑤口③ |②-③-|
口④④口 |--④-|
口口口① |--⑤-|
35
口口口口 |①---|
口口口口 |----|
口口口口 |----|
口口①口 |----|
36
口①②口 |----|
口口口③ |①---|
③口口口 |②---|
口②①口 |③---|
37
口②③口 |①---|
①口口④ |②---|
④口口① |③---|
口③②口 |④---|
38
②④④② |①---|
④②②④ |②---|
口口口口 |③---|
③口口① |④---|
39
口口口⑥ |①-②-|
口⑤⑤口 |③-④-|
①①②② |⑤---|
③③④④ |⑥---|
40
口⑤⑥口 |①-②-|
口⑤⑥口 |--③-|
①②④③ |④---|
①②④③ |⑤-⑥-|
41
④口口① |--①-|
③⑤⑤② |②-③-|
②⑤⑤③ |④-⑤-|
①口口④ |----|
42
口⑦口口 |--①-|
⑤口⑥口 |②-③-|
口③口④ |④-⑤-|
①口②口 |⑥-⑦-|
43
口口口① |----|
口口口口 |----|
口口口口 |----|
口口口口 |--①-|
44
口口口口 |①---|
口口口口 |②---|
②②④④ |③---|
①①③③ |④---|
45
口①②口 |①-②-|
口③④口 |③-④-|
口口口口 |----|
口口口口 |----|
46
①口口口 |--①-|
口②口口 |②-③-|
口口③口
口口口口

⑦口口⑦
口口口口
口⑥口⑤ |④-⑤-|
口④口口 |⑥-⑦-|
47
⑥②②⑥ |--①-|
④⑤⑤④ |②-③-|
口口口口 |④-⑤-|
①③③① |⑥---|
48
口⑤⑥口 |①-②-|
口⑤⑥口 |--③-|
①②④③ |④---|
①②④③ |⑤-⑥-|
49
④口口① |--①-|
③⑤⑤② |②-③-|
②⑤⑤③ |④-⑤-|
①口口④ |----|
50
口⑦口口 |--①-|
⑤口⑥口 |②-③-|
口③口④ |④-⑤-|
①口②口 |⑥-⑦-|
51
口口口① |----|
口口口口 |----|
口口口口 |----|
口口口口 |--①-|
52
口口口口 |①---|
口口口口 |②---|
②②④④ |③---|
①①③③ |④---|
53
口①①口 |①---|
口②③口 |②-③-|
口④⑤口 |----|
口口口口 |--④⑤|
54
口口口口 |①---|
④③②口 |--②③|
口口口① |④---|
口口口口 |----|
55
口①①口 |①--②|
③口口④ |--③-|
口②②口 |④-⑤-|
⑤⑦口⑥ |⑥-⑦-|
56
③②口口 |①-②-|
④口①口 |③---|
⑤口口口 |④---|
口口口口 |⑤---|
57
口口口口 |①---|
口口口口 |②---|
口口口口 |③---|
①②③④ |④---|
58
口口④③ |①---|
口口口② |②---|
口口口① |③---|
口口口口 |④---|
59
口①口口 |①-②-|
口③②口 |----|
口③②口 |③---|
口④④口 |④---|
60
①①①① |①---|
口口口口 |----|
口口口口 |----|
口口口口 |----|

不確定度: 0

最終更新:2014年12月11日 23:48