LUCKY-YO!!
だいやぁ☆もんど

BASIC

Level: 3
BPM: 112
Notes: 215

1
口口口口 |----|
口口口口 |----|
口口口口 |----|
口口口口 |----|
2
口③③口 |①---|
口口口口 |②---|
①口口② |③---|
口④④口 |④---|
3
③口口③ |①---|
口①②口 |②---|
口口口口 |③---|
④口口④ |④---|
4
口③③口 |①---|
口口口口 |②---|
①口口② |③---|
口④④口 |④---|
5
③口口③ |①---|
①口口② |②---|
口口口口 |③---|
④口口④ |④---|
6
口④④口 |①---|
口①②口 |②---|
口口口口 |③---|
口③③口 |④---|
7
④口口④ |①---|
口口口口 |②---|
①口口② |③---|
③口口③ |④---|
8
口④④口 |①---|
口①②口 |②---|
口口口口 |③---|
口③③口 |④---|
9
④口口④ |①---|
口口口口 |②---|
①口口② |③---|
③口口③ |④---|
10
口口口口 |①---|
口②①口 |----|
口口口口 |②---|
口口口口 |----|
11
口口口口 |①---|
口口口③ |②---|
口口②口 |③---|
口①口口 |----|
12
口口口口 |①---|
口口口① |----|
②口口口 |②---|
口口口口 |----|
13
口口口口 |①---|
③口口口 |②---|
口②口口 |③---|
口口①口 |----|
14
口口口① |①---|
②口口口 |----|
口口口口 |②---|
口口口口 |----|
15
③口口口 |①---|
口②④口 |②---|
口口①口 |③---|
口口口口 |④---|
16
口口口口 |①---|
②口口② |----|
①口口① |②---|
口口口口 |----|
17
口口口口 |①---|
口①①口 |----|
口①①口 |----|
口口口口 |----|
18
①②③④ |①---|
口口口口 |②---|
口口口口 |③---|
口口口口 |④---|
19
口口口口 |①---|
口口口口 |----|
口①①口 |----|
口口口口 |----|
20
口口口口 |①---|
④③②① |②---|
口口口口 |③---|
口口口口 |④---|
21
口口口口 |①---|
口口口口 |----|
口口口口 |----|
口①①口 |----|
22
口口口口 |①---|
口口口口 |②---|
①②③④ |③---|
口口口口 |④---|
23
口口口口 |①---|
口①①口 |----|
口口口口 |----|
②口口口 |②---|
24
口口口口 |①---|
口②②口 |----|
口①①口 |②---|
口口口口 |----|
25
①①①① |①---|
口口口口 |----|
口口口口 |----|
口口口口 |----|
26
③口口③ |①---|
口①②口 |②---|
口①②口 |③---|
④口口④ |④---|
27
口口口口 |①---|
口②口④ |②---|
①口③口 |③---|
口口口口 |④---|
28
③口口③ |①---|
口①②口 |②---|
口①②口 |③---|
④口口④ |④---|
29
口口口口 |①---|
①口③口 |②---|
口②口④ |③---|
口口口口 |④---|
30
③口口③ |①---|
口①②口 |②---|
口①②口 |③---|
④口口④ |④---|
31
口口口口 |①---|
口②口④ |②---|
①口③口 |③---|
口口口口 |④---|
32
③口口③ |①---|
口①②口 |②---|
口①②口 |③---|
④口口④ |④---|
33
口口口口 |①---|
①口③口 |②---|
口②口④ |③---|
口口口口 |④---|
34
口口口口 |①---|
口口口口 |----|
口口口口 |----|
口①①口 |----|
35
③口口③ |①---|
口①②口 |②---|
口口口口 |③---|
④口口④ |④---|
36
口③③口 |①---|
口口口口 |②---|
①口口② |③---|
口④④口 |④---|
37
③口口③ |①---|
①口口② |②---|
口口口口 |③---|
④口口④ |④---|
38
口口口口 |①---|
②①①② |----|
②①①② |②---|
口口口口 |----|
39
①②③口 |----|
口口口口 |①---|
口口口口 |②---|
口口口口 |③---|
40
口口口口 |①---|
②①①② |----|
②①①② |②---|
口口口口 |----|
41
口③②① |----|
口口口口 |①---|
口口口口 |②---|
口口口口 |③---|
42
口口口口 |①---|
②①①② |----|
②①①② |②---|
口口口口 |----|
43
口口口口 |----|
口口口口 |①---|
口口口口 |②---|
①②③口 |③---|
44
口口口口 |①---|
②①①② |----|
②①①② |②---|
口口口口 |----|
45
口口口口 |----|
口口口口 |①---|
口口口口 |②---|
口③②① |③---|
46
口口口口 |①---|
口①①口 |----|
口①①口 |----|
口口口口 |----|

不確定度: 0

最終更新:2014年12月11日 23:45