LUCKY-YO!!
だいやぁ☆もんど

ADVANCED

Level: 5
BPM: 112
Notes: 314

1
口口口口 |----|
口口口口 |----|
口口口口 |----|
口口口口 |----|
2
口口口口 |--①-|
口口口口 |②---|
③④⑤⑥ |③-④-|
口①②口 |⑤-⑥-|
3
口②①口 |--①-|
⑥⑤④③ |②---|
口口口口 |③-④-|
口口口口 |⑤-⑥-|
4
口口口口 |--①-|
口口口口 |②---|
③④⑤⑥ |③-④-|
口①②口 |⑤-⑥-|
5
③②①③ |--①-|
口口口口 |②---|
口口口口 |③---|
④口口④ |④---|
6
口口口口 |--①-|
口口口口 |②---|
③④⑤⑥ |③-④-|
口①②口 |⑤-⑥-|
7
口②①口 |--①-|
⑥⑤④③ |②---|
口口口口 |③-④-|
口口口口 |⑤-⑥-|
8
口口口口 |--①-|
口口口口 |②---|
③④⑤⑥ |③-④-|
口①②口 |⑤-⑥-|
9
③②①③ |--①-|
口口口口 |②---|
口口口口 |③---|
④口口④ |④---|
10
口口口④ |--①-|
口③⑤口 |②-③-|
口⑥②口 |④-⑤-|
⑦①口口 |⑥-⑦-|
11
①口口口 |①-②-|
口②口口 |③-④-|
口口③口 |⑤---|
口⑤口④ |----|
12
口口口口 |--①-|
口口口③ |②-③-|
②口口口
口口口①

④口口口
口⑤口口
口口⑥口 |④-⑤-|
口口口⑦ |⑥-⑦-|
13
口口口① |①-②-|
口口②口 |③-④-|
口③口口 |⑤---|
④口⑤口 |----|
14
口口口③ |--①-|
④①①口 |②---|
口②②⑤ |③-④-|
⑥口口口 |⑤-⑥-|
15
口④口口 |①-②-|
口口③口 |③-④-|
口②口口
口口①口

口口口⑤
口口口口
口⑥口口 |⑤---|
口⑥口口 |⑥---|
16
口口口口 |①---|
口口口口 |----|
口口①口
口口①口

口口③口
口②③口
口②③口 |②---|
口口口口 |--③-|
17
口口口口 |----|
口口口口 |----|
口口口口 |----|
口口口口 |----|
18
①③口② |--①-|
口④口口 |②---|
口⑤口口 |③-④-|
口⑥口口 |⑤-⑥-|
19
口口口口 |①---|
口口②② |②---|
口口②② |----|
口口①口 |----|
20
口口⑥口 |--①-|
口口⑤口 |②---|
口口④口 |③-④-|
②口③① |⑤-⑥-|
21
口①口口 |①---|
口口②口 |②---|
口②②口 |----|
口②②口 |----|
22
①③口② |--①-|
口④口口 |②---|
口⑤口口 |③-④-|
口⑥口口 |⑤-⑥-|
23
口口口口 |①---|
③口口② |②-③-|
③口口②
口口①口

口④④口
口口口口
⑤口口⑤ |--④-|
口口口口 |--⑤-|
24
②③④⑤ |①---|
②③④⑤ |②-③-|
口⑦⑦口 |④-⑤-|
①⑥⑥① |⑥-⑦-|
25
④口口④ |①---|
③口口③ |②---|
②口口② |③---|
①口口① |④---|
26
④口口口 |①-②-|
①②③口 |③--④|
口⑥⑤口 |--⑤-|
口⑥⑤口 |⑥---|
27
③口⑥③ |--①-|
⑤②①口 |②--③|
口②①④ |--④-|
④⑥口⑤ |⑤-⑥-|
28
口口口④ |①-②-|
口③②① |③--④|
口⑤⑥口 |--⑤-|
口⑤⑥口 |⑥---|
29
③口口③ |--①-|
口①②口 |②--③|
口①②口
口口口口

口⑥口口
口④口⑤
口口口口 |--④-|
⑤口⑥④ |⑤-⑥-|
30
④口口口 |①-②-|
①②③口 |③--④|
口⑥⑤口 |--⑤-|
口⑥⑤口 |⑥---|
31
③口⑥③ |--①-|
⑤②①口 |②--③|
口②①④ |--④-|
④⑥口⑤ |⑤-⑥-|
32
口口口④ |①-②-|
口③②① |③--④|
口⑤⑥口 |--⑤-|
口⑤⑥口 |⑥---|
33
③④⑤⑥ |--①-|
口①②口 |②---|
口①②口 |③-④-|
口口口口 |⑤-⑥-|
34
口口口口 |①---|
口口口口 |----|
口①①口 |----|
口口口口 |----|
35
口②①口 |--①-|
⑥⑤④③ |②---|
口口口口 |③-④-|
口口口口 |⑤-⑥-|
36
口口口口 |--①-|
口口口口 |②---|
③④⑤⑥ |③-④-|
口①②口 |⑤-⑥-|
37
③②①③ |--①-|
口口口口 |②---|
口口口口 |③---|
④口口④ |④---|
38
口②③口 |①-②-|
①口口④ |--③-|
③口口② |④---|
口④①口 |----|
39
④口口⑤ |--①-|
口②③口 |②③-④|
口口①口 |--⑤-|
⑦口口⑥ |⑥-⑦-|
40
口②③口 |①-②-|
①口口④ |--③-|
③口口② |④---|
口④①口 |----|
41
⑤口口④ |--①-|
口③②口 |②③-④|
口①口口 |--⑤-|
⑥口口⑦ |⑥-⑦-|
42
口①③口 |①-②-|
②口口④ |--③-|
③口口① |④---|
口④②口 |----|
43
④口口⑤ |--①-|
口②③口 |②③-④|
口口①口 |--⑤-|
⑦口口⑥ |⑥-⑦-|
44
口②③口 |①-②-|
①口口④ |--③-|
③口口② |④---|
口④①口 |----|
45
⑤口口④ |--①-|
口③②口 |②③-④|
口①口口 |--⑤-|
⑥口口⑦ |⑥-⑦-|
46
口口口口 |①---|
口①①口 |----|
口①①口 |----|
口口口口 |----|

不確定度: 0

最終更新:2014年12月11日 23:45