Field on!
サザン☆クロス

BASIC

Level: 3
BPM: 170
Notes: 230

1
口口口口 |----|
口口口口 |----|
口口口口 |----|
口口口口 |----|
2
口口口口 |①---|
口口口口 |----|
口①①口 |----|
口口口口 |----|
3
口口口口 |①---|
口①①口 |----|
口口口口 |----|
口口口口 |----|
4
口口口口 |①---|
口口口口 |----|
口①①口 |----|
口口口口 |----|
5
口口口口 |①---|
口①①口 |----|
口口口口 |----|
口口口口 |----|
6
口口口口 |①---|
口③④口 |②---|
口②口口 |③---|
口①口口 |④---|
7
口口口口 |①---|
口④③口 |②---|
口口②口 |③---|
口口①口 |④---|
8
口口口口 |①---|
口③④口 |②---|
口②口口 |③---|
口①口口 |④---|
9
口口口口 |①---|
口④③口 |②---|
口口②口 |③---|
口口①口 |④---|
10
口口口口 |①---|
口③④口 |②---|
口②口口 |③---|
口①口口 |④---|
11
口口口口 |①---|
口④③口 |②---|
口口②口 |③---|
口口①口 |④---|
12
口口口口 |①---|
口口口口 |②---|
①口口口 |③---|
②③④口 |④---|
13
口口口口 |①---|
口口口口 |②---|
口④③② |③---|
口口口① |④---|
14
口口口口 |①---|
口②①口 |②---|
口④③口 |③---|
口口口口 |④---|
15
口口口口 |①---|
口②①口 |②---|
口④③口 |③---|
口口口口 |④---|
16
口口口口 |①---|
口②①口 |②---|
口④③口 |③---|
口口口口 |④---|
17
口口口口 |①---|
口②①口 |②---|
口④③口 |③---|
口口口口 |④---|
18
口口口口 |①---|
①①口口 |----|
口口口口 |----|
口口口口 |----|
19
口口口口 |①---|
口口①① |----|
口口口口 |----|
口口口口 |----|
20
口口口口 |①---|
口口口口 |----|
①①口口 |----|
口口口口 |----|
21
口口口口 |①---|
口口口口 |----|
口口①① |----|
口口口口 |----|
22
口口口口 |①---|
口①口口 |----|
口①口口 |----|
口口口口 |----|
23
口口口口 |①---|
口口①口 |----|
口口①口 |----|
口口口口 |----|
24
口口口口 |①---|
①口口口 |----|
①口口口 |----|
口口口口 |----|
25
口口口口 |①---|
口口口① |----|
口口口① |----|
口口口口 |----|
26
口口口口 |①---|
①口①口 |----|
口口口口 |----|
口口口口 |----|
27
口口口口 |①---|
口①口① |----|
口口口口 |----|
口口口口 |----|
28
口口口口 |①---|
口口口口 |----|
①口①口 |----|
口口口口 |----|
29
口口口口 |①---|
口口口口 |----|
口①口① |----|
口口口口 |----|
30
口口口口 |①---|
口①①口 |----|
口口口口 |----|
口口口口 |----|
31
口口口口 |①---|
口口口口 |----|
口①①口 |----|
口口口口 |----|
32
口口口口 |①---|
口口口口 |----|
①口口① |----|
口口口口 |----|
33
口口口口 |①---|
①口口① |----|
口口口口 |----|
口口口口 |----|
34
口口口口 |①---|
口口口口 |----|
口②口口 |②---|
口①口口 |----|
35
口②口口 |①---|
口①口口 |----|
口口口口 |②---|
口口口口 |----|
36
口②①口 |①---|
口④③口 |②---|
口口口口 |③---|
口口口口 |④---|
37
口口口口 |①---|
口口口口 |②---|
口②①口 |③---|
口④③口 |④---|
38
口口口口 |①---|
口口口口 |----|
口①②口 |②---|
口口口口 |----|
39
口口口口 |①---|
口①②口 |----|
口口口口 |②---|
口口口口 |----|
40
①②口口 |①---|
①②口口 |----|
口口口口 |②---|
口口口口 |----|
41
口口①② |①---|
口口①② |----|
口口口口 |②---|
口口口口 |----|
42
口口口口 |①---|
口①②口 |②---|
口③④口 |③---|
口口口口 |④---|
43
口口口口 |①---|
口①①口 |----|
口口口口 |----|
口口口口 |----|
44
口③④口 |①---|
②②②② |②---|
口①①口 |③---|
口口口口 |④---|
45
口口口口 |①---|
口①②口 |②---|
口③④口 |③---|
口口口口 |④---|
46
口口口口 |①---|
口口口口 |②---|
口③④口 |③---|
口①②口 |④---|
47
口③④口 |①---|
口①②口 |②---|
口口口口 |③---|
口口口口 |④---|
48
口③④口 |①---|
②②②② |②---|
口①①口 |③---|
口口口口 |④---|
49
口口口口 |①---|
口①②口 |②---|
口③④口 |③---|
口口口口 |④---|
50
口口口口 |①---|
口口口口 |②---|
①③④② |③---|
口口口口 |④---|
51
口口口口 |①---|
①口口① |②---|
②口口② |③---|
③④④③ |④---|
52
口③④口 |①---|
②②②② |②---|
口①①口 |③---|
口口口口 |④---|
53
口口口口 |①---|
口①②口 |②---|
口③④口 |③---|
口口口口 |④---|
54
口口口口 |①---|
口口口口 |②---|
口③④口 |③---|
口①②口 |④---|
55
口③④口 |①---|
口①②口 |②---|
口口口口 |③---|
口口口口 |④---|
56
口③④口 |①---|
②②②② |②---|
口①①口 |③---|
口口口口 |④---|
57
口口口口 |①---|
口①②口 |②---|
口③④口 |③---|
口口口口 |④---|
58
口口口口 |①---|
口口口口 |②---|
①③④② |③---|
口口口口 |④---|
59
③②②③ |①---|
④①①④ |②---|
口口口口 |③---|
口口口口 |④---|
60
口口口口 |①---|
口口口口 |----|
口①①口 |②---|
口②口口 |----|
61
口口口口 |①---|
口口口口 |----|
口①①口 |②---|
口口②口 |----|
62
口口口口 |①---|
口①①口 |----|
口口口口 |②---|
口②口口 |----|
63
口口口口 |①---|
口①①口 |----|
口口口口 |②---|
口口②口 |----|
64
口口口口 |①---|
口口口口 |----|
口①②口 |②---|
口口口口 |----|
65
口口口口 |①---|
口①①口 |----|
口口口口 |----|
口口口口 |----|
66
口口口口 |①---|
①口口① |----|
口口口口 |----|
口口口口 |----|
67
①口口① |①---|
口口口口 |----|
口口口口 |----|
口口口口 |----|
68
口口口口 |①---|
口③④口 |②---|
口①②口 |③---|
口口口口 |④---|

不確定度: 0

最終更新:2015年04月28日 23:05