Field on!
サザン☆クロス

ADVANCED

Level: 6
BPM: 170
Notes: 330

1
口口口口 |----|
口口口口 |----|
口口口口 |----|
口口口口 |----|
2
口口口口 |①-②-|
口口口口 |③-④-|
口②④口 |----|
口①③口 |----|
3
口口口口 |①---|
口③④口 |②---|
②口口② |③-④-|
①口口① |----|
4
口口口口 |①-②-|
口口口口 |③-④-|
口②④口 |----|
口①③口 |----|
5
口③③口 |①---|
口②②口 |--②-|
口口口口 |--③-|
①口口① |----|
6
口②口口 |①---|
口③④口 |----|
口口口口 |--②-|
①口口① |③-④-|
7
口口①口 |①---|
口口口口 |--②-|
口②③口 |----|
口口口口 |③---|
8
口②口口 |①---|
口③④口 |----|
口口口口 |--②-|
口①①口 |③-④-|
9
口口①口 |①---|
口口口口 |--②-|
口②③口 |----|
口口口口 |③---|
10
口口口口 |①---|
口②③口 |----|
口④口口 |--②-|
口①①口 |③-④-|
11
口口口口 |①---|
②口口② |--②-|
口口①口 |----|
口口口口 |----|
12
口口口口 |①-②-|
⑧口口⑦ |③-④-|
⑥④③⑤ |⑤-⑥-|
口②①口 |⑦-⑧-|
13
口⑦⑥口 |①-②-|
口口口⑤ |③-④-|
口④③口 |--⑤-|
口②①口 |⑥-⑦-|
14
口口口口 |①---|
①口②口 |----|
口③④口 |--②-|
口口口口 |③-④-|
15
口①口口 |①---|
口口②口 |--②-|
口③④口 |----|
口口口口 |③-④-|
16
口口口口 |①---|
口口口口 |----|
口口口口 |----|
②①①② |②---|
17
口口口口 |①---|
口①①口 |----|
口口口口 |----|
口口口口 |----|
18
口口口口 |----|
①②③口 |①---|
口口口口 |②---|
口口口口 |③---|
19
口口口口 |①---|
口口口① |----|
④③②口 |--②-|
口口口口 |③-④-|
20
口口口口 |----|
口口口口 |----|
口①口口 |----|
口口口口 |①---|
21
口口口口 |①-②-|
口②①口 |--③-|
口口口口
口口③口

口口口口
口口⑤口
口④口口 |--④-|
口口口口 |--⑤-|
22
口口口口 |①---|
口①口口 |--②-|
口④③口 |----|
口②口口 |③-④-|
23
口②②口 |①---|
口①①口 |--②-|
口口口口 |----|
口口口口 |----|
24
口口口口 |----|
口口⑤① |①---|
④③②口 |②-③-|
口口口口 |④-⑤-|
25
口口口口 |--①-|
口①口口 |--②-|
口④③口 |--③-|
口②口口 |④---|
26
口口口口 |----|
①②③口 |①---|
口口口口 |②---|
口口口口 |③---|
27
口口口口 |①---|
口④③① |--②-|
口②口口 |--③-|
口口口口 |④---|
28
口①①口 |①---|
②口口② |--②-|
口④③口 |----|
口口口口 |③-④-|
29
口口口口 |----|
口口口口 |----|
口口口口 |----|
口①口口 |--①-|
30
口口口口 |①---|
口口①口 |--②-|
口②③口 |----|
口口口口 |③---|
31
口口④口 |①---|
③①①③ |----|
②口口② |②--③|
口口口口 |--④-|
32
口①口口 |①---|
口口口口 |--②-|
口③②口 |③---|
口口口口 |----|
33
口口口口 |----|
口口口口 |----|
口口口口 |----|
口口口口 |----|
34
口口口口 |----|
口⑥⑤口 |①-②-|
口④③口 |③-④-|
口②①口 |⑤-⑥-|
35
口口口口 |----|
口④口口 |--①-|
口②③口 |--②-|
口口①口 |③-④-|
36
②口口③ |①---|
口口①口 |②-③-|
口口口口
口口口口

口口口口
口④⑤口
口⑤④口 |--④-|
口口口口 |--⑤-|
37
口口口口 |----|
口口口口 |----|
口口口口 |----|
口口口口 |----|
38
口口口口 |----|
口⑥⑤口 |①-②-|
口④③口 |③-④-|
口②①口 |⑤-⑥-|
39
口口口口 |----|
口②②口 |--①-|
口口口口 |----|
口①口口 |②---|
40
口口口口 |----|
口口口口 |①---|
①②③口 |②---|
口口口口 |③---|
41
口口口口 |①---|
口②②口 |--②-|
口口口① |----|
口③④口 |③-④-|
42
③口口③ |①---|
②口口② |--②-|
口①①口 |----|
口口口口 |③---|
43
口口口口 |①---|
口①①口 |----|
④口口口 |--②-|
口②③口 |③-④-|
44
②②②② |①---|
口⑤⑤口 |②---|
口③④① |③-④-|
口口口口 |--⑤-|
45
①④①④ |--①-|
口口口口 |--②-|
②③②③ |--③-|
口口口口 |--④-|
46
口口口口 |----|
④口②口 |----|
③口①口 |①-②-|
口口口口 |③-④-|
47
口口口口 |--①-|
③②③② |--②-|
口口口口 |--③-|
④①④① |--④-|
48
①①①① |----|
④口口④ |①---|
③口口③ |--②-|
②口口② |③-④-|
49
口口口口 |----|
①②③口 |----|
口口口口 |--①-|
口口口口 |②-③-|
50
口④⑤口 |①-②-|
口⑥口口 |③-④-|
口②③① |--⑤-|
口口口口 |--⑥-|
51
③口口③ |--①-|
②口口② |②-③-|
④①①⑤ |--④-|
⑥⑥口口 |⑤-⑥-|
52
②②②② |①---|
口⑤⑤口 |②---|
口③④口 |③-④-|
口口①① |--⑤-|
53
①④①④ |--①-|
口口口口 |--②-|
②③②③ |--③-|
口口口口 |--④-|
54
口口口口 |----|
④口②口 |----|
③口①口 |①-②-|
口口口口 |③-④-|
55
口口口口 |--①-|
③②③② |--②-|
口口口口 |--③-|
④①④① |--④-|
56
①①①① |----|
④口口④ |①---|
③口口③ |--②-|
②口口② |③-④-|
57
口口口口 |----|
①②③口 |----|
口口口口 |--①-|
口口口口 |②-③-|
58
口④⑤口 |①-②-|
口⑥口口 |③-④-|
口②③① |--⑤-|
口口口口 |--⑥-|
59
③③③③ |--①-|
②口口② |②-③-|
口①①口 |----|
口口口口 |----|
60
口口口口 |----|
口口③口 |①---|
口②口口 |②---|
①口口口 |③---|
61
口口口口 |①---|
口①④① |--②-|
②③②口 |----|
口口口口 |③-④-|
62
②①口② |①---|
口③口口 |--②-|
口口口口 |----|
口口口口 |③---|
63
口口口口 |①---|
口口口口 |--②-|
①口口① |----|
②口口② |----|
64
口口口口 |----|
③①②口 |①---|
口口口口 |②---|
③①②口 |③---|
65
口口⑤口 |①---|
口④口① |--②-|
口②③口 |③--④|
口口口① |--⑤-|
66
口①口口 |①---|
口口口口 |--②-|
口③②口 |③---|
口口口口 |----|
67
口口口口 |----|
口口口口 |----|
口口口口 |----|
口口口口 |----|
68
⑤口口④ |①-②-|
口⑥③口 |③-④-|
口②⑦口 |⑤-⑥-|
①口口⑧ |⑦-⑧-|

不確定度: 0

最終更新:2014年12月11日 23:41