Field on!
サザン☆クロス

EXTREME

Level: 8
BPM: 170
Notes: 497

1
口口口口 |----|
口口口口 |----|
口口口口 |----|
口口口口 |----|
2
口④口口 |①-②-|
⑤口③口 |③-④-|
⑥②口口 |----|
口口①口 |--⑤⑥|
3
口口④口 |①---|
口口口口 |②---|
口②③② |③-④-|
①口①口 |----|
4
⑤④口口 |①-②-|
⑥口③口 |③-④-|
⑦②口口 |----|
⑧口①口 |⑤⑥⑦⑧|
5
③③②② |①---|
口口口口 |--②-|
口②③① |--③-|
口④①口 |④---|
6
口口口口 |①---|
口①①口 |----|
口口口口
口口口口

口口口口
口④口②
口口③口 |--②-|
口口口口 |③-④-|
7
口①①口 |①---|
②③口② |--②-|
口口③口 |----|
口口口口 |③---|
8
口口口口 |①---|
②口④口 |----|
口③口口 |--②-|
口①①口 |③-④-|
9
口①①口 |①---|
③②口③ |--②-|
口口②口 |----|
口口口口 |③---|
10
口口口口 |①---|
口②口② |----|
口④③口 |--②-|
①口口① |③-④-|
11
口②②口 |①---|
①口①口 |--②-|
口口口口 |----|
口口口口 |----|
12
⑤⑦⑧⑥ |①-②-|
③⑤⑥④ |③-④-|
①③④② |⑤-⑥-|
口①②口 |⑦-⑧-|
13
口口⑦口 |①-②-|
口⑥口口 |③-④-|
①②③④ |--⑤-|
口口⑤口 |⑥-⑦-|
14
口口口口 |①---|
口口口口 |----|
口①①口
口口口口

口②口口
口口③口
口④口口 |--②-|
口口口口 |③-④-|
15
口口口口 |①---|
②口口② |--②-|
口口口口
口①①口

口口口口
口口口口
③口口口 |----|
口④口口 |③-④-|
16
口口口口 |①---|
口口口口 |----|
口口①口 |----|
口②②口 |②---|
17
口口口口 |①---|
口①①口 |----|
口口口口 |----|
口口口口 |----|
18
口口口口 |----|
口口口口 |①---|
口③口③ |②---|
①②①② |③---|
19
口口口口 |①---|
口口④口 |----|
①③①口 |--②-|
口口②口 |③-④-|
20
口口口口 |----|
①口口口 |----|
口口口口 |----|
口口口口 |①---|
21
口口口口 |①-②-|
口①⑤口 |--③-|
口②④① |--④-|
③口③② |--⑤-|
22
口口口口 |①---|
口口口口 |--②-|
口①口口
口口②口

口口口口
口口④口
口③口口 |----|
口口口口 |③-④-|
23
①口口② |①---|
口口口口 |--②-|
口口口口 |----|
②口口① |----|
24
⑤口口① |----|
口④③② |①---|
⑤口口① |②-③-|
口口口口 |④-⑤-|
25
口①口口 |--①-|
②口②口 |--②-|
口③口③ |--③-|
口④口④ |④---|
26
口口口口 |----|
口口口口 |①---|
口③口③ |②---|
①②①② |③---|
27
口口口口 |①---|
口④③口 |--②-|
①口①口 |--③-|
口口②口 |④---|
28
①口口② |①---|
口口口口 |--②-|
口④③口 |----|
②口口① |③-④-|
29
口口口口 |----|
口口口口 |----|
口口口口 |----|
口口①口 |--①-|
30
口口口口 |①---|
②①①③ |--②-|
口②③口 |----|
口口口口 |③---|
31
口①①口 |①---|
④口口④ |----|
②口口③ |②--③|
口②③口 |--④-|
32
口①①口 |①---|
口②③口 |--②-|
口③②口 |③---|
口口口口 |----|
33
口①口⑤ |----|
口②口⑥ |----|
口③口⑦ |①②③④|
口④口⑧ |⑤⑥⑦⑧|
34
①口⑦⑥ |①---|
口④⑤⑦ |②-③-|
口③④口 |④-⑤-|
②口口口 |⑥-⑦-|
35
口口口口 |----|
口②口③ |--①-|
口①①④ |--②-|
口口口口 |③-④-|
36
③⑦③⑦ |①-②-|
口口④⑧ |③-④-|
②⑥口口 |⑤-⑥-|
①⑤口① |⑦-⑧-|
37
③⑧③口 |①-②-|
⑦⑥④口 |③-④-|
②口口口 |⑤-⑥-|
①⑤口口 |⑦-⑧-|
38
口口口口 |①---|
口口口① |②-③-|
口③口口
②口口②

口口⑦⑥
口④⑤⑦
口口④口 |④-⑤-|
口口口口 |⑥-⑦-|
39
②口口② |----|
口口口口 |--①-|
口①①口 |----|
口口口口 |②---|
40
口口口口 |----|
①②③口 |①---|
口口口口 |②---|
①②③口 |③---|
41
③口口口 |①---|
口④口① |--②-|
③②②口 |----|
口④口① |③-④-|
42
口口口① |①---|
口口②口 |--②-|
口②口①
口口口口

③③③③
口口口口
口口口口 |----|
口口口口 |③---|
43
口口口口 |①---|
③口口③ |----|
④②②④ |--②-|
①①①① |③-④-|
44
②②口口 |①---|
口⑤④⑥ |②---|
口口口口 |③-④-|
①③③① |⑤-⑥-|
45
口口④口 |①-②-|
③口口口 |③-④-|
口口②口
①口口口

口口口口
口⑦口⑥
口口⑧口 |⑤-⑥-|
口⑤口口 |⑦-⑧-|
46
口口⑥口 |①---|
②⑤⑤口 |②---|
①③④口 |③-④-|
口口③口 |⑤-⑥-|
47
口口口口 |①-②-|
③⑦⑥② |③-④-|
①⑤④口 |⑤-⑥-|
口口⑧口 |⑦-⑧-|
48
②②⑤⑤ |①---|
口⑤⑥⑥ |②---|
口口④口 |③-④-|
①③口口 |⑤-⑥-|
49
口口口口 |①---|
②⑤⑥口 |②---|
口口⑤口 |③-④-|
①③④口 |⑤-⑥-|
50
口口④① |①-②-|
③⑦⑧② |③-④-|
①⑤⑥③ |⑤-⑥-|
口口口口 |⑦-⑧-|
51
⑬⑭⑮⑯ |①②③④|
⑨⑩⑪⑫ |⑤⑥⑦⑧|
⑤⑥⑦⑧ |⑨⑩⑪⑫|
①②③④ |⑬⑭⑮⑯|
52
口口④口 |①---|
口⑤口⑥ |②---|
②②②② |③-④-|
①③③口 |⑤-⑥-|
53
口口④口 |①-②-|
③口口口 |③-④-|
口口②口
①口口口

口口口口
口⑦⑥口
口口⑧⑧ |⑤-⑥-|
口⑤口口 |⑦-⑧-|
54
口口⑥⑥ |①---|
②⑤⑤口 |②---|
①③④口 |③-④-|
口口③口 |⑤-⑥-|
55
口口口口 |①-②-|
③⑦⑥② |③-④-|
①⑤④口 |⑤-⑥-|
口口⑧⑧ |⑦-⑧-|
56
②②②② |①---|
口⑤⑤⑥ |②---|
口口⑥⑤ |③-④-|
①③④口 |⑤-⑥-|
57
口口口口 |①---|
②⑤⑥口 |②---|
口口⑤口 |③-④-|
①③④口 |⑤-⑥-|
58
口口④① |①-②-|
③⑦⑧② |③-④-|
①⑤⑥③ |⑤-⑥-|
口口口口 |⑦-⑧-|
59
①⑨⑬⑤ |①②③④|
②⑩⑭⑥ |⑤⑥⑦⑧|
③⑪⑮⑦ |⑨⑩⑪⑫|
④⑫⑯⑧ |⑬⑭⑮⑯|
60
②②口② |①---|
口④口④ |②---|
口口口口 |③---|
①③口③ |④---|
61
②②③口 |①---|
口口⑥口 |②-③-|
⑤口口⑤ |④---|
①④①口 |⑤-⑥-|
62
②①③③ |①---|
口⑤口口 |②-③-|
口口⑤口 |④---|
①④口口 |⑤---|
63
②②口口 |①---|
口⑤①口 |②-③-|
口①口口 |④---|
①④③③ |⑤---|
64
②口口口 |①---|
口④③口 |②---|
口口④口 |③---|
①③口② |④---|
65
口口口口 |①-②-|
①口口① |③---|
②口口② |----|
③③③③ |----|
66
③②①口 |①---|
①口③② |--②-|
②③口① |----|
口①②③ |③---|
67
口口口① |①---|
口①口口 |----|
口口①口 |----|
①口口口 |----|
68
⑧口口④ |①-②-|
口⑦③口 |③-④-|
口②⑥口 |⑤-⑥-|
①口口⑤ |⑦-⑧-|

不確定度: 0

最終更新:2014年12月11日 23:41