御千手メディテーション
昇天家族

BASIC

Level: 6
BPM: 150-190
Notes: 496

BPM: 150
1
口口口口 |----|
口口口口 |----|
口口口口 |----|
口口口口 |----|
2
口口口口 |①---|
口①①口 |----|
口②②口 |②---|
③口口口 |--③-|
3
口口口口 |①---|
③口口口 |----|
口②②口 |②---|
口口口① |--③-|
4
②口口③ |①---|
④口口① |--②-|
口口口口 |③---|
口口口口 |--④-|
5
口②②口 |①---|
口③③① |----|
口口口口 |②---|
口口口口 |③---|
6
口口口口 |①---|
口②②口 |----|
③①①口 |②---|
口口口口 |--③-|
7
口口口口 |①---|
口口口口 |----|
口③③① |②---|
口②②口 |③---|
8
④口口④ |①---|
③口口③ |②---|
②口口② |③---|
①口口① |④---|
9
口口口口 |①---|
口①①口 |----|
口口口口 |----|
口口口口 |----|
10
口①①口 |①---|
口口口口 |----|
口口口口 |----|
口口口口
11
口口口① |----|
口口②① |①---|
口口②口 |②---|
口口口口

BPM: 190
12
口口口口 |①---|
口口口口 |----|
口①口口 |----|
口①口口
13
口口口口 |----|
口口口口 |----|
口口口口 |----|
口口口口
14
口口口口 |①---|
口口口口 |----|
口口①口 |----|
口口①口
15
口口口口 |----|
口口口口 |----|
口口口口 |----|
口口口口
16
口口口口 |①---|
口①口口 |----|
口①口口 |----|
口口口口
17
口口口口 |----|
口口口口 |----|
口口口口 |----|
口口口口
18
口口口口 |①---|
口口①口 |----|
口口①口 |----|
口口口口
19
口口口口 |----|
口口口口 |----|
口口口口 |----|
口口口口
20
①③口口 |①---|
口口口口 |②---|
②④口口 |③---|
口口口口 |④---|
21
口口①③ |①---|
口口口口 |②---|
口口②④ |③---|
口口口口 |④---|
22
口口口口 |①---|
口口③① |②---|
口口口口 |③---|
口口④② |④---|
23
口口口口 |①---|
③①口口 |②---|
口口口口 |③---|
④②口口 |④---|
24
口③①口 |①---|
口口口口 |②---|
口④②口 |③---|
口口口口 |④---|
25
口口口口 |①---|
③口口① |②---|
口口口口 |③---|
④口口② |④---|
26
③口口① |①---|
口口口口 |②---|
④口口② |③---|
口口口口 |④---|
27
口口口口 |①---|
口③①口 |②---|
口口口口 |③---|
口④②口 |④---|
28
口口口口 |①---|
口口口口 |----|
口①①口 |②---|
②口口② |----|
29
②口口② |①---|
口①①口 |----|
口口口口 |②---|
口口口口 |----|
30
口①口④ |①---|
②口口③ |②---|
③口口② |③---|
口④①口 |④---|
31
口口口口 |①---|
口①①口 |----|
口①①口 |----|
口口口口 |----|
32
①①口口 |①---|
口②口口 |②-③-|
口⑥③口 |④---|
口④⑤口 |⑤-⑥-|
33
口口口口 |①---|
②口①口 |②-③-|
⑥口口③ |④---|
④口口⑤ |⑤-⑥-|
34
口⑤②口 |①---|
口③⑥① |②-③-|
口口④口 |④---|
口口口口 |⑤-⑥-|
35
口口口口 |①---|
④口口④ |②---|
③①口③ |③---|
②口口② |④---|
36
①口口① |①---|
口⑤②口 |②-③-|
口③⑥口 |④---|
口口④口 |⑤-⑥-|
37
口口口口 |①---|
⑤口口② |②-③-|
③口口⑥ |④---|
口①口④ |⑤-⑥-|
38
口④④口 |①---|
口③③口 |②---|
口②②口 |③---|
①口口口 |④---|
39
口口口口 |①---|
③口④③ |②---|
②④口② |③---|
①口口① |④---|
40
①①口口 |①---|
口②口口 |②-③-|
口⑥③口 |④---|
口④⑤口 |⑤-⑥-|
41
口口口口 |①---|
②口①口 |②-③-|
⑥口口③ |④---|
④口口⑤ |⑤-⑥-|
42
口⑤②口 |①---|
口③⑥① |②-③-|
口口④口 |④---|
口口口口 |⑤-⑥-|
43
口口口口 |①---|
④口口④ |②---|
③①口③ |③---|
②口口② |④---|
44
①口口① |①---|
口⑤②口 |②-③-|
口③⑥口 |④---|
口口④口 |⑤-⑥-|
45
口口口口 |①---|
⑤口口② |②-③-|
③口口⑥ |④---|
口①口④ |⑤-⑥-|
46
④④②② |①---|
口口口口 |②---|
口口口口 |③---|
①口口③ |④---|
47
口口口口 |①-②-|
④④②② |③-④-|
口⑤⑤口 |⑤---|
口①③口 |----|
48
口③②① |①---|
口③②口 |②---|
口口口口 |③---|
口口口口
49
①口口口 |①---|
①口口口 |②---|
②③口口 |③---|
口③口口
50
口口口③ |①---|
口口口口 |②---|
口口①② |③---|
口口①②
51
③②①口 |①---|
③②①口 |②---|
口口口口 |③---|
口口口口
52
口口口口 |①---|
口口口口 |②---|
口②③口 |③---|
①②③口
53
口口③口 |①---|
口口③② |②---|
口口口① |③---|
口口口①
54
②①口口 |①---|
②①口口 |②---|
③口口口 |③---|
口口口口
55
口口口口 |①---|
口口口口 |②---|
口①②③ |③---|
口①②③
56
口③②口 |①---|
口③②① |②---|
口口口口 |③---|
口口口口
57
口口口口 |----|
口口口口 |----|
口口口口 |①---|
①口口口
58
②②①① |①---|
④④③③ |②---|
口口口口 |③---|
口口口口 |④---|
59
口口口口 |①---|
口口口口 |②---|
②②①① |③---|
④④③③ |④---|
60
①①②② |①---|
③③④④ |②---|
口口口口 |③---|
口口口口 |④---|
61
口口口口 |①---|
口口口口 |----|
③①①② |②---|
③口口② |③---|
62
②②①① |①---|
④④③③ |②---|
口口口口 |③---|
口口口口 |④---|
63
口口口口 |①---|
口口口口 |②---|
②②①① |③---|
④④③③ |④---|
64
①②③④ |①---|
①②③④ |②---|
口口口口 |③---|
口口口口 |④---|
65
④口口④ |①---|
口口口口 |②---|
口①②口 |③---|
③口口③ |④---|
66
口口口口 |①---|
①①①① |----|
口口口口
口口口口

口口口口
④④④④
口口口口 |②---|
口②③口 |③---④-|
67
口口口口 |----|
口口口口 |----|
口②①口 |①---|
口口口口 |②---|
68
口口口口 |①---|
①①①① |----|
口口口口
口口口口

口口口口
④④④④
口口口口 |②---|
口②③口 |③---④-|
69
口口口口 |----|
口口口口 |----|
口②①口 |①---|
口口口口 |②---|
70
②④口口 |①---|
口口口口 |②---|
口口口口 |③---|
①③③① |④---|
71
口口②④ |①---|
口③③口 |②---|
①口口① |③---|
口口口口 |④---|
72
④④④④ |①---|
③③③③ |②---|
②②②② |③---|
①①①① |④---|
73
口口口口 |①---|
口口口口 |----|
口口口口 |----|
①①①① |----|
74
①①口口 |①---|
口口口口 |----|
口口②口 |②---|
口口口口 |----|
75
口口①① |①---|
口口口口 |----|
口②口口 |②---|
口口口口 |----|
76
口口口口 |①---|
口①①口 |----|
口口口口 |----|
口口口口 |----|
77
口口口口 |①---|
口口口口 |----|
口口口口 |----|
①口口① |----|
78
口①①口 |①---|
口②②口 |②---|
口③③口 |③---|
口口口口 |----|
79
①①①口 |①---|
口口口口 |----|
口口口② |②---|
口口口口 |----|
80
口口口口 |①---|
口口口口 |----|
口口口口 |----|
①口口口 |----|
81
口①①① |①---|
口口③口 |②---|
口口②口 |③---|
口口④口 |④---|
82
①②③④ |①---|
口口口口 |②---|
口口口口 |③---|
口口口口 |④---|
83
口④④④ |①---|
①口口口 |②---|
口②口口 |③---|
口口③口 |④---|
84
④④④口 |①---|
口口口① |②---|
口口②口 |③---|
口③口口 |④---|
85
口口口口 |①---|
口①①口 |----|
口口口口 |----|
口口口口 |----|
86
④④④④ |①---|
③③③③ |②---|
②②②② |③---|
①①①① |④---|
87
口口口④ |①---|
口口③口 |②---|
口②口口 |③---|
口①①① |④---|
88
④口口口 |①---|
口③口口 |②---|
口口②口 |③---|
①①①口 |④---|
89
口①①口 |①---|
②口口② |②---|
③口口③ |③---|
口④④口 |④---|
90
①口口① |①---|
口②②口 |②---|
口③③口 |③---|
④口口④ |④---|
91
①①①口 |①---|
口口口② |②---|
③口口口 |③---|
口口④口 |④---|
92
口①①① |①---|
②口口口 |②---|
口口口③ |③---|
口④口口 |④---|
93
④口口④ |①---|
口③③口 |②---|
口②②口 |③---|
①口口① |④---|
94
口④④口 |①---|
③口口③ |②---|
②口口② |③---|
口①①口 |④---|
95
口口口口 |--①-|
口①①口 |----|
口①①口 |----|
口口口口 |----|

不確定度: 0

最終更新:2014年12月11日 23:40