僕は君に恋をした
アイドル教室

BASIC

Level: 2
BPM: 170
Notes: 207

1
口口口口 |----|
口口口口 |----|
口口口口 |----|
口口口口 |----|
2
口口口口 |----|
口口口口 |----|
口口口口 |----|
口口口口 |----|
3
口口口口 |①---|
①②口口 |----|
口口口口 |②---|
口口口口 |----|
4
口口口口 |①---|
口口①② |----|
口口口口 |②---|
口口口口 |----|
5
口口口口 |①---|
口口口口 |----|
口口②① |②---|
口口口口 |----|
6
口口口口 |①---|
口口口口 |----|
②①口口 |②---|
口口口口 |----|
7
口口口口 |①---|
①②口口 |----|
口口口口 |②---|
口口口口 |----|
8
口口口口 |①---|
口口①② |----|
口口口口 |②---|
口口口口 |----|
9
口口口口 |①---|
口口口口 |----|
①①①① |----|
口口口口 |----|
10
口口口口 |①---|
口②②口 |----|
口①①口 |②---|
口口口口 |----|
11
口口口口 |①---|
口口口口 |----|
①口口口 |----|
口口口口 |----|
12
口口口口 |①---|
口口口口 |----|
口①口口 |----|
口口口口 |----|
13
口口口口 |①---|
口口口口 |----|
口口①口 |----|
口口口口 |----|
14
口口口口 |①---|
口口口口 |----|
口口口① |----|
口口口口 |----|
15
口口口口 |①---|
口口口① |----|
口口口口 |----|
口口口口 |----|
16
口口口口 |①---|
口口①口 |----|
口口口口 |----|
口口口口 |----|
17
口口口口 |①---|
口①口口 |----|
口口口口 |----|
口口口口 |----|
18
口口口口 |①---|
①口口口 |----|
口口口口 |----|
口口口口 |----|
19
口口口口 |①---|
口口口口 |----|
口①口口 |----|
口口口口 |----|
20
口口口口 |①---|
口①口口 |----|
口口口口 |----|
口口口口 |----|
21
口口口口 |①---|
口口口口 |----|
口口①口 |----|
口口口口 |----|
22
口口口口 |①---|
口口①口 |----|
口口口口 |----|
口口口口 |----|
23
口口口口 |①---|
口①口口 |----|
口口口口 |----|
口口口口 |----|
24
口①口口 |①---|
口口口口 |----|
口口口口 |----|
口口口口 |----|
25
口口口口 |①---|
口口①口 |----|
口口口口 |----|
口口口口 |----|
26
口口①口 |①---|
口口口口 |----|
口口口口 |----|
口口口口 |----|
27
口口口口 |①---|
口口口① |----|
口口口② |②---|
口口口口 |----|
28
口口口口 |①---|
口口①口 |----|
口口②口 |②---|
口口口口 |----|
29
口口口口 |①---|
口①口口 |----|
口②口口 |②---|
口口口口 |----|
30
口口口口 |①---|
①口口口 |----|
②口口口 |②---|
口口口口 |----|
31
口口口口 |①---|
口③口口 |②---|
口②口口 |③---|
口①口口 |----|
32
口口口口 |①---|
口口③口 |②---|
口口②口 |③---|
口口①口 |----|
33
口口口口 |①---|
口③④口 |②---|
口②口口 |③---|
口①口口 |④---|
34
口口口口 |①---|
口口口口 |②---|
口④①口 |③---|
口③②口 |④---|
35
口口口口 |①---|
口①口口 |----|
口口口口 |----|
口口口口 |----|
36
口口口口 |①---|
口①③口 |②---|
口②④口 |③---|
口口口口 |④---|
37
口①②口 |①---|
口③④口 |②---|
口口口口 |③---|
口口口口 |④---|
38
口口口口 |①---|
口口口口 |②---|
口①③口 |③---|
口②④口 |④---|
39
口口口口 |①---|
口①②口 |②---|
口③④口 |③---|
口口口口 |④---|
40
口口口口 |①---|
口口口口 |②---|
①②③④ |③---|
口口口口 |④---|
41
口口口口 |①---|
口口口口 |②---|
口口口口 |③---|
④③②① |④---|
42
口口口口 |①---|
口口口口 |②---|
①②③④ |③---|
口口口口 |④---|
43
口口口口 |①---|
口口口口 |②---|
口口口口 |③---|
④③②① |④---|
44
口口口口 |①---|
②④口口 |②---|
①③口口 |③---|
口口口口 |④---|
45
口口口口 |①---|
口口②④ |②---|
口口①③ |③---|
口口口口 |④---|
46
①①①① |①---|
②②②② |----|
口口口口 |②---|
口口口口 |----|
47
口口口口 |①---|
口口口口 |----|
口①①口 |②---|
口②②口 |----|
48
口口口口 |①---|
口②口口 |----|
①①口口 |②---|
口口口口 |----|
49
口口口口 |①---|
口口②口 |----|
口口①① |②---|
口口口口 |----|
50
口口口口 |①---|
口②口口 |----|
①①口口 |②---|
口口口口 |----|
51
口口口口 |①---|
口口②口 |----|
口口①① |②---|
口口口口 |----|
52
口口口口 |①---|
口①③口 |②---|
口②④口 |③---|
口口口口 |④---|
53
口①②口 |①---|
口③④口 |②---|
口口口口 |③---|
口口口口 |④---|
54
口口口口 |①---|
口口口口 |②---|
口①③口 |③---|
口②④口 |④---|
55
口口口口 |①---|
口①②口 |②---|
口③④口 |③---|
口口口口 |④---|
56
口口口口 |①---|
口口口口 |②---|
①②③④ |③---|
口口口口 |④---|
57
口口口口 |①---|
口口口口 |②---|
口口口口 |③---|
④③②① |④---|
58
口口口口 |①---|
口口口口 |②---|
①②③④ |③---|
口口口口 |④---|
59
口口口口 |①---|
口口口口 |②---|
口口口口 |③---|
④③②① |④---|
60
口口口口 |①---|
②④口口 |②---|
①③口口 |③---|
口口口口 |④---|
61
口口口口 |①---|
口口②④ |②---|
口口①③ |③---|
口口口口 |④---|
62
①①①① |①---|
②②②② |----|
口口口口 |②---|
口口口口 |----|
63
口口口口 |①---|
口口口口 |----|
口①①口 |②---|
口②②口 |----|
64
口口口口 |①---|
口①②口 |----|
口②①口 |②---|
口口口口 |----|
65
①①①① |①---|
口口口口 |----|
口口口口 |----|
口口口口 |----|
66
口口口口 |①---|
①②口口 |----|
口口口口 |②---|
口口口口 |----|
67
口口口口 |①---|
口口①② |----|
口口口口 |②---|
口口口口 |----|
68
口口口口 |①---|
口口口口 |----|
口口②① |②---|
口口口口 |----|
69
口口口口 |①---|
口口口口 |----|
②①口口 |②---|
口口口口 |----|
70
口口口口 |①---|
①②口口 |----|
口口口口 |②---|
口口口口 |----|
71
口口口口 |①---|
口口①② |----|
口口口口 |②---|
口口口口 |----|
72
口口口口 |①---|
口②②口 |----|
口①①口 |②---|
口口口口 |----|
73
口口口口 |①---|
口②②口 |----|
口①①口 |②---|
口口口口 |----|
74
①①①① |①---|
口口口口 |----|
口口口口 |----|
口口口口 |----|

不確定度: 0

最終更新:2015年10月16日 22:34