僕は君に恋をした
アイドル教室

ADVANCED

Level: 6
BPM: 170
Notes: 338

1
口口口口 |----|
口口口口 |----|
口口口口 |----|
口口口口 |----|
2
口口口口 |----|
口口口口 |----|
口口口口 |----|
口口口口 |----|
3
口口口① |----|
口④②口 |①---|
口口③口 |②-③-|
口口口口 |--④-|
4
口口口口 |----|
③口口口 |①---|
②口口口 |②-③-|
口①口口 |----|
5
①口口口 |----|
口②④口 |①---|
口③口口 |②-③-|
口口口口 |--④-|
6
口口口口 |----|
口口口③ |①---|
口口口② |②-③-|
口口①口 |----|
7
口口口① |----|
口④②口 |①---|
口口③口 |②-③-|
口口口口 |--④-|
8
口口口口 |--①-|
③口口口 |②-③-|
②⑥⑤口 |--④-|
①口④口 |⑤-⑥-|
9
口口口口 |①---|
口①口口 |----|
口口口口 |----|
口口口口 |----|
10
④口口④ |①-②-|
③口口③ |--③-|
口①②口 |--④-|
口口口口 |----|
11
口口口口 |①---|
口口口口 |----|
口口口口 |----|
口①口口 |----|
12
口口口口 |①---|
口口①口 |②-③-|
口②③口
口口口口

口口口口
口④⑤口
口口口口 |--④-|
口口口口 |--⑤-|
13
口口口口 |----|
口口口口 |----|
口口口口 |----|
口口口口 |----|
14
①口口口 |①---|
口③②口 |②-③-|
口口④⑤ |--④-|
口口口口 |--⑤-|
15
口口①口 |----|
口口口口 |----|
口口口口 |----|
口口口口 |①---|
16
口口口口 |①-②-|
③①②③ |--③-|
口口口口 |----|
口口口口 |----|
17
口口口口 |①---|
口口口口 |----|
口③②口 |--②-|
口①①口 |--③-|
18
口口口口 |----|
口口口口 |----|
口口口口 |----|
口口口口 |----|
19
口口口口 |①---|
口口口口 |----|
口口口口 |----|
口①口口 |----|
20
口口口口 |①---|
口口①口 |②-③-|
口②③口
口口口口

口口口口
口④⑤口
口口口口 |--④-|
口口口口 |--⑤-|
21
①口口口 |----|
口口口口 |----|
口口口口 |----|
口口口口 |--①-|
22
口①口口 |①---|
口②③口 |②-③-|
口口⑤④ |--④-|
口口口口 |--⑤-|
23
口口①口 |----|
口口口口 |----|
口口口口 |----|
口口口口 |①---|
24
口口口口 |①-②-|
③①②③ |--③-|
口④口口 |----|
口口口口 |④---|
25
④⑤⑤④ |①---|
口③②口 |②-③-|
口口①口 |--④-|
口口口口 |--⑤-|
26
口口口① |----|
口口口② |----|
口口口③ |①-②-|
口口口④ |③-④-|
27
口口口口 |--①-|
口口口口 |②---|
口①②口 |----|
口口口口 |----|
28
①口口口 |----|
②口口口 |----|
③口口口 |①-②-|
④口口口 |③-④-|
29
口口口口 |--①-|
口口口口 |②---|
口②①口 |----|
口口口口 |----|
30
口口口口 |----|
口口口口 |----|
口口口口 |----|
①口口口 |①---|
31
口口口口 |①-②-|
口口口口 |--③-|
④②①口 |----|
口口口③ |④---|
32
④口口口 |①-②-|
口②①口 |--③-|
口口口③ |----|
口口口口 |④---|
33
口②③① |①---|
口④口口 |②-③-|
口口⑤口 |--④-|
口⑥口口 |⑤-⑥-|
34
口口口口 |----|
口口口口 |----|
口口口口 |----|
口口口口 |----|
35
口③④口 |----|
口口口口 |①-②-|
口口②口 |③-④-|
口①口口 |----|
36
⑧口口⑦ |①-②-|
⑥口⑤口 |③-④-|
④口口③ |⑤-⑥-|
②口①口 |⑦-⑧-|
37
口口口口 |--①-|
口①②口 |②-③-|
口③④口 |④-⑤-|
口⑤口口 |----|
38
②口口① |①-②-|
④口③口 |③-④-|
⑥口口⑤ |⑤-⑥-|
⑧口⑦口 |⑦-⑧-|
39
口⑤口口 |--①-|
口③④口 |②-③-|
口①②口 |④-⑤-|
口口口口 |----|
40
口④口口 |----|
①口口① |①---|
口②③口 |②-③-|
口口口口 |--④-|
41
口口口口 |--①-|
口口①口 |--②-|
口②口口 |----|
③口口③ |③---|
42
③③③③ |①---|
④④④④ |②---|
口②②口 |③---|
口①①口 |--④-|
43
④口④口 |----|
口③口口 |--①-|
口口②口 |②-③-|
口①口口 |--④-|
44
口②口② |----|
口口口口 |①---|
③①③① |②---|
口口口口 |③---|
45
①③①③ |①---|
口口口口 |②-③-|
④②④② |--④-|
口口口口 |----|
46
⑤⑤⑥⑥ |①--②|
口口④④ |--③-|
③③口口 |④--⑤|
①①②② |--⑥-|
47
口口口口 |①---|
①①口口 |----|
口口③口 |②---|
口②口口 |③---|
48
口④⑤口 |①-②-|
③①②口 |--③-|
口口口口 |--④-|
口口口口 |--⑤-|
49
口口口口 |--①-|
口②②① |--②-|
口③④⑤ |--③-|
口口口口 |④-⑤-|
50
口口口口 |----|
口口口口 |----|
口口口口 |----|
口口口口 |----|
51
口③④口 |----|
口口口口 |①-②-|
口口②口 |③-④-|
口①口口 |----|
52
⑧口口⑦ |①-②-|
⑥口⑤口 |③-④-|
④口口③ |⑤-⑥-|
②口①口 |⑦-⑧-|
53
口口①口 |①-②-|
口②③口 |③-④-|
口④⑤口 |⑤-⑥-|
口⑥口口 |----|
54
②口口① |①-②-|
④口③口 |③-④-|
⑥口口⑤ |⑤-⑥-|
⑧口⑦口 |⑦-⑧-|
55
口⑤口口 |--①-|
口③④口 |②-③-|
口①②口 |④-⑤-|
口口口口 |----|
56
口④口口 |----|
①口口① |①---|
口②③口 |②-③-|
口口口口 |--④-|
57
口口口口 |--①-|
口口①口 |--②-|
口②口口 |--③-|
口口③口 |----|
58
②②②② |①---|
③③③③ |----|
口口口口 |②---|
①口口① |--③-|
59
④口④口 |----|
口③口口 |--①-|
口口②口 |②-③-|
口①口口 |--④-|
60
④②④② |----|
③口③口 |①---|
口①口① |②-③-|
口口口口 |--④-|
61
口②口② |--①-|
口口口口 |--②-|
口①口①
口口口口

口口口口
口口口口
口口③③ |----|
口口口口 |--③-|
62
⑤⑤⑥⑥ |①--②|
口口④④ |--③-|
③③口口 |④--⑤|
①①②② |--⑥-|
63
口口口口 |①---|
①①口口 |----|
口口③口 |②---|
口②口口 |③---|
64
口口口口 |①-②-|
口①②口 |--③-|
③口口④ |--④-|
口⑤⑤口 |--⑤-|
65
①①①① |--①-|
口口口口 |----|
口③②口 |②-③-|
口⑤④口 |④-⑤-|
66
口口口① |----|
口④②口 |①---|
口口③口 |②-③-|
口口口口 |--④-|
67
口口口口 |----|
③口口口 |①---|
②口口口 |②-③-|
口①口口 |----|
68
①口④口 |----|
口②口口 |①---|
口③口口 |②-③-|
口口口口 |--④-|
69
口口口口 |----|
口口口③ |①---|
口口口② |②-③-|
口口①口 |----|
70
口口口① |----|
口④②口 |①---|
口口③口 |②-③-|
口口口口 |--④-|
71
口口口口 |--①-|
③口口口 |②-③-|
②⑥⑤口 |--④-|
①口④口 |⑤-⑥-|
72
口④②口 |①-②-|
口③①口 |----|
口口口口 |③-④-|
口口口口 |----|
73
④口口④ |①-②-|
③口口③ |--③-|
口②②口 |--④-|
口①①口 |----|
74
口口口口 |①-②-|
口①②口 |----|
口②①口 |----|
口口口口 |----|

不確定度: 0

最終更新:2014年12月11日 23:37