僕は君に恋をした
アイドル教室

EXTREME

Level: 8
BPM: 170
Notes: 482

1
口口口口 |----|
口口口口 |----|
口口口口 |----|
口口口口 |----|
2
口口口口 |----|
口口口口 |----|
口口口口 |----|
口口口口 |----|
3
④口口④ |----|
①口口① |①---|
口③②口 |②-③-|
口口口口 |--④-|
4
口口口口 |----|
口②③口 |①---|
口口口口 |②-③-|
口①①口 |----|
5
④口口④ |----|
①口口① |①---|
口③口口 |②-③-|
口口②口 |--④-|
6
口口口口 |----|
口口③口 |①---|
①②口① |②-③-|
口口口口 |----|
7
口①①口 |----|
④口口④ |①---|
口③口口 |②-③-|
口口②口 |--④-|
8
口口口口 |--①-|
口③⑤口 |②-③-|
⑥口②④ |--④-|
口①口口 |⑤-⑥-|
9
口④④口 |①-②-|
口③③口 |----|
口②②口 |③-④-|
口①①口 |----|
10
口③④口 |①-②-|
口④③口 |--③-|
②口口② |--④-|
①口口① |----|
11
口口口口 |①---|
口口口口 |----|
①①口口 |----|
口口口口 |----|
12
④口口⑤ |①---|
口②③① |②-③-|
口口①口 |--④-|
口口口口 |--⑤-|
13
口口口口 |----|
口口口口 |----|
口口口口 |----|
口口口口 |----|
14
⑤口③① |①---|
④②口口 |②-③-|
⑤口③① |--④-|
口口口口 |--⑤-|
15
口口口口 |----|
口口口口 |----|
口口口口 |----|
口口①口 |①---|
16
口①①① |①-②-|
口口②口 |--③-|
口③③③ |----|
口口口口 |----|
17
口口口③ |①---|
①口口③ |----|
①②②口 |--②-|
①①①口 |--③-|
18
口口口口 |----|
口口口口 |----|
口口口口 |----|
口口口口 |----|
19
口口口口 |①---|
口口口口 |----|
口口口口 |----|
口①①口 |----|
20
口口①口 |①---|
口②②② |②-③-|
④④口③ |--④-|
⑤⑤③口 |--⑤-|
21
口口口口 |----|
①口①口 |----|
口口口口 |----|
口口口口 |--①-|
22
口①②口 |①---|
口③口③ |②-③-|
⑤①②⑤ |--④-|
口④④口 |--⑤-|
23
口口口口 |----|
口口①① |----|
口口口口 |----|
口口口口 |①---|
24
口口口口 |①-②-|
③③口口 |--③-|
口口口口 |----|
④①②④ |④---|
25
口口口口 |①---|
口②②口 |②-③-|
③①口③
口口①口

口口口口
⑤口口④
口⑤④口 |--④-|
口口口口 |--⑤-|
26
①口口口 |----|
②④口口 |----|
③口口口 |①-②-|
口口口口 |③-④-|
27
口口口口 |--①-|
口口口口 |②---|
口口①① |----|
口口②② |----|
28
口口口① |----|
口口④② |----|
口口口③ |①-②-|
口口口口 |③-④-|
29
口口口口 |--①-|
口口口口 |②---|
①①口口 |----|
②②口口 |----|
30
口口口口 |----|
口口口口 |----|
口口口口 |----|
口①①口 |①---|
31
①口口① |①-②-|
口口③口 |--③-|
口③口口 |----|
②④④② |④---|
32
①④口① |①-②-|
口④③口 |--③-|
口③口口 |----|
②口口② |④---|
33
口口①① |①---|
口口③② |②-③-|
④⑤口② |--④-|
⑥⑤口口 |⑤-⑥-|
34
口口口口 |----|
口口口口 |----|
口口口口 |----|
口口口口 |----|
35
口④④口 |----|
③口口③ |①-②-|
口②②口 |③-④-|
口①①口 |----|
36
口口口① |①-②-|
③口②口 |③-④-|
口口④口
①口③口

口⑧⑦⑧
口⑤口⑤
口⑦口⑥ |⑤-⑥-|
口口口口 |⑦-⑧-|
37
⑤口④口 |--①-|
口③口② |②-③-|
④口⑤口 |④-⑤-|
口②口① |----|
38
口口口① |①-②-|
③口②口 |③-④-|
口口④口
①口③口

⑧口⑦⑧
口⑤口⑤
口⑦口⑥ |⑤-⑥-|
口口口口 |⑦-⑧-|
39
口④口⑤ |--①-|
②口③口 |②-③-|
口⑤口④ |④-⑤-|
①口②口 |----|
40
口口④④ |----|
口①①口 |①---|
口口③口 |②-③-|
口②口口 |--④-|
41
①①口口 |--①-|
③②口③ |--②-|
口口②口 |----|
口口口口 |③---|
42
③③③③ |①---|
口④⑤口 |②---|
②④⑤② |③---|
口①①口 |④-⑤-|
43
④口④口 |----|
口口口口 |--①-|
口②③口 |②-③-|
口口①口 |--④-|
44
口②口② |----|
口口口口 |①---|
口口口口 |②---|
③①③① |③---|
45
①③①③ |①---|
口口口口 |②-③-|
口口口口 |--④-|
④②④② |----|
46
①③④⑥ |①--②|
口⑤口② |--③-|
⑥口③口 |④--⑤|
④②⑤① |--⑥-|
47
①口口口 |①---|
口②③口 |----|
口②③口 |②---|
口口口① |③---|
48
口②①口 |①-②-|
③口口③ |--③-|
口⑤⑤口 |--④-|
④口口④ |--⑤-|
49
口①①口 |--①-|
②口口② |--②-|
口③④⑤ |--③-|
口口口口 |④-⑤-|
50
口口口口 |----|
口口口口 |----|
口口口口 |----|
口口口口 |----|
51
口④④口 |----|
③口口③ |①-②-|
口②②口 |③-④-|
口①①口 |----|
52
⑧⑧⑦① |①-②-|
③⑤②⑤ |③-④-|
口⑦④⑥ |⑤-⑥-|
①口③口 |⑦-⑧-|
53
⑥口⑤口 |①-②-|
口④①③ |③-④-|
⑤口⑥口 |⑤-⑥-|
口③口② |----|
54
口口口① |①-②-|
③口②口 |③-④-|
口口④口
①口③口

⑧口⑦⑧
口⑤口⑤
口⑦口⑥ |⑤-⑥-|
口口口口 |⑦-⑧-|
55
口④口⑤ |--①-|
②口③口 |②-③-|
口⑤口④ |④-⑤-|
①口②口 |----|
56
口口④④ |----|
口①①口 |①---|
口口③口 |②-③-|
口②口口 |--④-|
57
①①口口 |--①-|
口②③口 |--②-|
口③②口 |--③-|
口口口口 |----|
58
③③③③ |①---|
口④⑤口 |②---|
②④⑤② |③---|
①①①① |④-⑤-|
59
④口④口 |----|
口口口口 |--①-|
口②③口 |②-③-|
口口①口 |--④-|
60
④②④② |----|
口口口口 |①---|
③口③口 |②-③-|
口①口① |--④-|
61
口口口③ |--①-|
②②②② |--②-|
③口口口 |----|
口①口① |--③-|
62
①③④⑥ |①--②|
口⑤口② |--③-|
⑥口③口 |④--⑤|
④②⑤① |--⑥-|
63
①口口口 |①---|
口②③口 |----|
口②③口 |②---|
口口口① |③---|
64
口口口口 |①-②-|
③③④④ |--③-|
①⑤⑤② |--④-|
口①②口 |--⑤-|
65
①①①① |--①-|
口③②口 |----|
口⑤④口 |②-③-|
口口口口 |④-⑤-|
66
④口口④ |----|
①口口① |①---|
口③②口 |②-③-|
口口口口 |--④-|
67
口口口口 |----|
口②③口 |①---|
口口口口 |②-③-|
口①①口 |----|
68
④口口④ |----|
①口口① |①---|
口③口口 |②-③-|
口口②口 |--④-|
69
口口口口 |----|
口口③口 |①---|
①②口① |②-③-|
口口口口 |----|
70
口①①口 |----|
④口口④ |①---|
口③口口 |②-③-|
口口②口 |--④-|
71
口口口口 |--①-|
口③⑤口 |②-③-|
⑥口②④ |--④-|
口①口口 |⑤-⑥-|
72
口④④口 |①-②-|
口③③口 |----|
口②②口 |③-④-|
口①①口 |----|
73
④③口④ |①-②-|
口口③口 |--③-|
②口口② |--④-|
①口口① |----|
74
口口口口 |①-②-|
口②②口 |----|
口②②口 |----|
①①①① |----|

不確定度: 0

最終更新:2014年12月11日 23:37