都会征服Girls☆
日向美ビタースイーツ♪

ADVANCED

Level: 6
BPM: 140
Notes: 430

1
口口口口 |----|
口口口口 |----|
口口口口 |----|
口口口口 |----|
2
口口口口 |①---|
③口口③ |②--③|
口①①口
口②②口

⑤口口⑤
口口口口
口④④口 |----|
口口口口 |④--⑤|
3
③③③③ |----|
口①①口 |①---|
口②②口 |②---|
口口口口 |③---|
4
⑤口口③ |①---|
⑤口④③ |②--③|
口②口口 |----|
口①口口 |④--⑤|
5
口①口② |----|
口口口② |①--②|
口③③口 |----|
口口口口 |③---|
6
口①口口 |①---|
口②口口 |②--③|
⑤口口③ |----|
⑤口④③ |④--⑤|
7
②口口③ |----|
口口口口 |①---|
口①口口 |②---|
③口口② |③---|
8
⑤口口③ |①---|
⑤口④③ |②--③|
口②口口 |----|
口①口口 |④--⑤|
9
口①口② |----|
口口口② |①--②|
口③③口 |----|
口口口口 |③---|
10
②④④② |①---|
口①①口 |②---|
口③③口 |③---|
口口口口 |④---|
11
口口口口 |①---|
口口口口 |②--③|
③口口③ |----|
口②①口 |----|
12
③④④口 |①---|
③①②口 |②--③|
口口口口 |----|
口口口口 |④---|
13
口口口口 |①---|
口口口口 |②--③|
口②①③ |----|
口④④③ |④---|
14
③③⑥⑥ |①-②-|
口⑤②口 |③---|
口①④口 |④-⑤-|
口口口口 |⑥---|
15
⑤⑤⑤⑤ |①-②-|
口③④口 |③-④-|
口①②口 |⑤---|
⑥⑥⑥⑥ |⑥---|
16
③④④口 |①---|
③①②口 |②--③|
口口口口 |----|
口口口口 |④---|
17
口口口口 |①---|
口口口口 |②--③|
口②①③ |----|
口④④③ |④---|
18
③③⑥⑥ |①-②-|
口⑤②口 |③---|
口①④口 |④-⑤-|
口口口口 |⑥---|
19
⑤⑤⑤⑤ |①-②-|
口③④口 |③-④-|
口①②口 |⑤---|
⑥⑥⑥⑥ |⑥---|
20
④④②② |①---|
口口口口 |②---|
③口口① |③---|
口口口口 |④---|
21
③口口③ |①---|
口②②口 |②---|
④口口④ |③---|
口①①口 |--④-|
22
④④②② |①---|
口口口口 |②---|
口③①口 |③---|
口口口口 |④---|
23
口口口口 |①--②|
③②④① |----|
③②④① |③--④|
口口口口 |----|
24
④④②② |①---|
口口口口 |②---|
③口口① |③---|
口口口口 |④---|
25
③口口③ |①---|
口②②口 |②---|
④口口④ |③---|
口①①口 |--④-|
26
口口口口 |①---|
③口②③ |----|
③②口③ |--②-|
口①①口 |③---|
27
口口口口 |①---|
口口口口 |----|
口口口口 |----|
口①①口 |----|
28
口口口口 |①---|
口③②口 |②---|
口④①口 |③---|
口口口口 |④---|
29
口口口口 |①---|
③口口③ |②---|
②口口② |③---|
①口口① |----|
30
口口口口 |①---|
口②③口 |②---|
口①④口 |③---|
口口口口 |④---|
31
口口口口 |①---|
③口口③ |②---|
②口口② |③---|
①口口① |----|
32
①口②口 |①---|
口口②口 |②---|
口④口③ |③---|
口④口口 |④---|
33
口④口口 |①---|
口④口③ |②---|
口口②口 |③---|
①口②口 |④---|
34
①口①口 |①---|
②口②口 |②---|
口③口③ |③---|
口④口④ |④---|
35
口①①口 |①---|
口②②口 |②---|
③口口③ |③---|
口口口口 |----|
36
②口口① |①---|
口口口口 |----|
口口口口 |②---|
①口口② |----|
37
口口③③ |①---|
口②①口 |②---|
口①②口 |③---|
③③口口 |----|
38
①③④② |①---|
口口口口 |②---|
口口口口 |③---|
②④③① |④---|
39
口口口口 |①---|
②①①② |②-③-|
口口口口
口③口口

口口口口
口⑦⑥口
口⑤④口 |④-⑤-|
口口口口 |⑥-⑦-|
40
①③③① |①---|
口口口口 |②---|
口口口口 |③---|
②④④② |④---|
41
口口口口 |①---|
①②②① |②---|
①③③① |③---|
④⑤口口 |④-⑤-|
42
口口口口 |①--②|
口口口⑤ |--③-|
③④口② |④---|
口口①口 |⑤---|
43
③④⑤② |①--②|
口①口口 |--③-|
口口口口 |④---|
口口口口 |--⑤-|
44
⑦口口⑦ |①-②-|
口①②口 |③-④-|
口③④口 |⑤-⑥-|
口⑤⑥口 |--⑦-|
45
口口①口 |--①-|
口②③口 |②-③-|
口④⑤口 |④-⑤-|
口⑥口口 |⑥---|
46
①③④② |①---|
口口口口 |②---|
口口口口 |③---|
②④③① |④---|
47
口口口口 |①---|
②①①② |②-③-|
口口口口
口③口口

口口口口
口⑦⑥口
口⑤④口 |④-⑤-|
口口口口 |⑥-⑦-|
48
①③③① |①---|
口口口口 |②---|
口口口口 |③---|
②④④② |④---|
49
口口口口 |①---|
①②②① |②---|
①③③① |③---|
④⑤口口 |④-⑤-|
50
口口口口 |①--②|
口口口⑤ |--③-|
③④口② |④---|
口口①口 |⑤---|
51
③④口② |①--②|
口①口口 |--③-|
口⑤口口 |④---|
口口口口 |--⑤-|
52
①口口① |①---|
②口口② |②---|
③口口③ |③---|
④口口④ |④---|
53
口①①口 |①--②|
③口口③ |--③-|
④②②④ |④---|
口口口口 |----|
54
口口口口 |①---|
③口口③ |②--③|
口①①口
口②②口

⑤口口⑤
口口口口
口④④口 |----|
口口口口 |④--⑤|
55
③③③③ |----|
口①①口 |①---|
口②②口 |②---|
口口口口 |③---|
56
⑤口口③ |①---|
⑤口④③ |②--③|
口②口口 |----|
口①口口 |④--⑤|
57
口①口② |----|
口口口② |①--②|
口③③口 |----|
口口口口 |③---|
58
口①口口 |①---|
口②口口 |②--③|
⑤口口③ |----|
⑤口④③ |④--⑤|
59
②口口③ |----|
口口口口 |①---|
口①口口 |②---|
③口口② |③---|
60
⑤口口③ |①---|
⑤口④③ |②--③|
口②口口 |----|
口①口口 |④--⑤|
61
口①口② |----|
口口口② |①--②|
口③③口 |----|
口口口口 |③---|
62
②④④② |①---|
口①①口 |②---|
口③③口 |③---|
口口口口 |④---|
63
口口口口 |①---|
口口口口 |②--③|
③口口③ |----|
口②①口 |----|
64
①①①① |----|
口口口口 |----|
口口口口 |----|
口口口口 |①---|

不確定度: 0

最終更新:2014年12月11日 23:33